Правила форума

Здесь находятся раздачи, на которых не было полного источника (сида) более месяца.
Вы можете вернуть релиз в соответствующий раздел, для этого напишите нам в специальной теме и встаньте на раздачу.
Новые релизы, повторяющие релизы в архиве, повторами не считаются.
Начать новую темуОтветить на тему  [ Сообщений: 2 ] 
Сообщения
 Добавлено: 2012-08-30 16:24
Top-releaser
Стаж: 4 года 11 месяцев
Сообщений: 311
Спасибок: 3512
Лайков: 2
Изображение

Полет Феникса / Flight of the Phoenix

Год выпуска: 2004
Страна: ИзображениеСША
Премьера: 17 декабря 2004
Слоган: «The only way out is up»
Студия: 20th Century Fox Film Corporation, Aldrich Group, Davis Entertainment, Optional Pictures
Жанр: боевик, триллер, драма, приключения
Продолжительность:01:52:57
Перевод 1: Профессиональный (дублированный)
Перевод 2: Профессиональный (многоголосый закадровый)
Перевод 3: Профессиональный (двухголосый закадровый)
Перевод 4: Одноголосый закадровый
Cубтитры: Русские (R5), Русские (Tycoon), Русские (названия и надписи), Английские
Оригинальная аудиодорожка: английский

Режиссер: Джон Мур / John Moore

В ролях:
Дэннис Куэйд, Тайриз Гибсон, Джованни Рибизи, Миранда Отто, Хью Лори, Джаред Падалеки, Тони Каррен, Стики Фингаз, Джейкоб Варгас, Скотт Майкл Кэмпбелл


Описание: Пилот транспортного самолёта Фрэнк Таунс и его помощник Эй Джей получают задание эвакуировать из Монголии команду геологов-нефтяников. Они и не подозревают, что эта рутинная операция обернётся настоящей борьбой за выживание. Вскоре после взлёта, над пустыней Гоби, самолёт попадает в сильную песчаную бурю, которая повреждает антенну и один из двигателей. Таунс вынужден посадить теряющий управление самолёт посреди одной из самых безлюдных и опасных пустынь мира. Самолёт безнадёжно разрушен, и у оставшихся в живых одиннадцати пассажиров и членов экипажа совсем мало еды и питья – и это в июльскую жару среди песков! Ситуация усугубляется взаимными обвинениями и претензиями, и обстановка накаляется до предела. Но один из спасшихся по имени Эллиотт – таинственный, эксцентричный человек, в последнюю минуту включённый в злополучный список пассажиров, - предлагает построить из сохранившихся деталей новый самолёт и назвать его "Феникс". Его поднимают на смех за абсурдность плана, попытки выполнения которого исчерпают последние силы и ресурсы несчастных. Тем не менее, когда ряды маленького отряда начинают таять, становится ясно, что план Эллиотта – последний шанс на спасение, и путь к спасению один – по небу.


Изображение

Меню:-
Качество:BDRip 720p
Формат:MKV
Видео:h.264, 1280x546, 23,976 fps, 6495 kbps
Аудио№1: Russian: AC3 5.1, 48 kHz, 384 kbps avg |Дубляж, Двадцатый век Фокс СНГ (R5)|
Аудио№2: Russian: AC3 5.1, 48 kHz, 384 kbps avg |Многоголосый закадровый, Гемини Киномир|
Аудио№3: Russian: DTS 5.1, 48 kHz, 1536 kbps avg |Двухголосый закадровый, Tycoon Studio|
Аудио№4: Russian: DTS 5.1, 48 kHz, 1536 kbps avg |Одноголосый закадровый, Алексей Попов|.
Аудио№5: English: DTS 5.1, 48 kHz, 1536 kbps avg |Оригинал|
Раздача группы: Изображение

MediaInfo
Complete name : G:\Flight.of.the.Phoenix.2004.720p.BDRip.x264.dts.ac3-HDv0T.mkv
Format : Matroska
Format version : Version 2
File size : 9.49 GiB
Duration : 1h 52mn
Overall bit rate : 12.0 Mbps
Movie name : Flight of the Phoenix (2004) | HDv0T
Encoded date : UTC 2012-08-10 17:15:29
Writing application : mkvmerge v5.7.0 ('The Whirlwind') built on Jul 8 2012 20:08:51
Writing library : libebml v1.2.3 + libmatroska v1.3.0

Video
ID : 1
Format : AVC
Format/Info : Advanced Video Codec
Format profile : High@L4.1
Format settings, CABAC : Yes
Format settings, ReFrames : 11 frames
Codec ID : V_MPEG4/ISO/AVC
Duration : 1h 52mn
Bit rate : 6 495 Kbps
Width : 1 280 pixels
Height : 546 pixels
Display aspect ratio : 2.35:1
Frame rate : 23.976 fps
Color space : YUV
Chroma subsampling : 4:2:0
Bit depth : 8 bits
Scan type : Progressive
Bits/(Pixel*Frame) : 0.388
Stream size : 5.12 GiB (54%)
Title : CRiSC
Default : Yes
Forced : No
Color primaries : BT.709-5, BT.1361, IEC 61966-2-4, SMPTE RP177
Transfer characteristics : BT.709-5, BT.1361
Matrix coefficients : BT.709-5, BT.1361, IEC 61966-2-4 709, SMPTE RP177

Audio #1
ID : 2
Format : AC-3
Format/Info : Audio Coding 3
Mode extension : CM (complete main)
Format settings, Endianness : Big
Codec ID : A_AC3
Duration : 1h 52mn
Bit rate mode : Constant
Bit rate : 384 Kbps
Channel(s) : 6 channels
Channel positions : Front: L C R, Side: L R, LFE
Sampling rate : 48.0 KHz
Bit depth : 16 bits
Compression mode : Lossy
Stream size : 310 MiB (3%)
Title : dub [20 cent. Fox]
Language : Russian
Default : Yes
Forced : No

Audio #2
ID : 3
Format : AC-3
Format/Info : Audio Coding 3
Mode extension : CM (complete main)
Format settings, Endianness : Big
Codec ID : A_AC3
Duration : 1h 52mn
Bit rate mode : Constant
Bit rate : 384 Kbps
Channel(s) : 6 channels
Channel positions : Front: L C R, Side: L R, LFE
Sampling rate : 48.0 KHz
Bit depth : 16 bits
Compression mode : Lossy
Stream size : 310 MiB (3%)
Title : mvo [Gemini]
Language : Russian
Default : No
Forced : No

Audio #3
ID : 4
Format : DTS
Format/Info : Digital Theater Systems
Codec ID : A_DTS
Duration : 1h 52mn
Bit rate mode : Constant
Bit rate : 1 510 Kbps
Channel(s) : 6 channels
Channel positions : Front: L C R, Side: L R, LFE
Sampling rate : 48.0 KHz
Bit depth : 24 bits
Compression mode : Lossy
Stream size : 1.19 GiB (13%)
Title : dvo [Tycoon]
Language : Russian
Default : No
Forced : No

Audio #4
ID : 5
Format : DTS
Format/Info : Digital Theater Systems
Codec ID : A_DTS
Duration : 1h 52mn
Bit rate mode : Constant
Bit rate : 1 510 Kbps
Channel(s) : 6 channels
Channel positions : Front: L C R, Side: L R, LFE
Sampling rate : 48.0 KHz
Bit depth : 24 bits
Compression mode : Lossy
Stream size : 1.19 GiB (13%)
Title : avo [A. Popov]
Language : Russian
Default : No
Forced : No

Audio #5
ID : 6
Format : DTS
Format/Info : Digital Theater Systems
Codec ID : A_DTS
Duration : 1h 52mn
Bit rate mode : Constant
Bit rate : 1 510 Kbps
Channel(s) : 6 channels
Channel positions : Front: L C R, Side: L R, LFE
Sampling rate : 48.0 KHz
Bit depth : 24 bits
Compression mode : Lossy
Stream size : 1.19 GiB (13%)
Title : DTS Core
Language : English
Default : No
Forced : No

Text #1
ID : 7
Format : ASS
Codec ID : S_TEXT/ASS
Codec ID/Info : Advanced Sub Station Alpha
Compression mode : Lossless
Title : 20 cent. Fox
Language : Russian
Default : No
Forced : No

Text #2
ID : 8
Format : ASS
Codec ID : S_TEXT/ASS
Codec ID/Info : Advanced Sub Station Alpha
Compression mode : Lossless
Title : Tycoon
Language : Russian
Default : No
Forced : No

Text #3
ID : 9
Format : ASS
Codec ID : S_TEXT/ASS
Codec ID/Info : Advanced Sub Station Alpha
Compression mode : Lossless
Title : Forced [20 cent. Fox]
Language : Russian
Default : No
Forced : No

Text #4
ID : 10
Format : ASS
Codec ID : S_TEXT/ASS
Codec ID/Info : Advanced Sub Station Alpha
Compression mode : Lossless
Language : English
Default : No
Forced : No
Свернуть


"Скриншоты"
Изображение
Изображение
Изображение
Свернуть
Не в сети
Профиль  
 Добавлено: 2012-08-31 13:43 (спустя 21 час)
Аватара пользователя
Стаж: 6 лет 6 месяцев
Сообщений: 19963
Спасибок: 721
Лайков: 461
В ХД! :sh_ok:
Забираю! :)
_________________
It was I'am ... :jn_pu_sk:
Медали и Ордена
ИзображениеИзображение
Свернуть
Не в сети
Профиль  
Начать новую темуОтветить на тему  [ Сообщений: 2 ] 
Вы не можете начинать темы
Вы не можете отвечать на сообщения
Вы не можете редактировать свои сообщения
Вы не можете удалять свои сообщения