Правила форума

Здесь находятся раздачи, на которых не было полного источника (сида) более месяца.
Вы можете вернуть релиз в соответствующий раздел, для этого напишите нам в специальной теме и встаньте на раздачу.
Новые релизы, повторяющие релизы в архиве, повторами не считаются.
Начать новую темуОтветить на тему  [ Сообщений: 2 ] 
Сообщения
 Добавлено: 2011-06-23 22:08
Модератор релиз-группы
Аватара пользователя
Стаж: 9 лет 1 месяц
Возраст: 97
Сообщений: 11659
Спасибок: 6532
Лайков: 269
Полицейский из Беверли-Хилз / Beverly Hills Cop

Изображение


Год выпуска: 1984
Страна: США
Жанр: Боевик, триллер, драма, комедия, криминал
Продолжительность: 01:45:04
Перевод: Дмитрий "Гоблин" Пучков (одноголосый, закадровый)
Авторский одноголосый (А. Михалев)
Профессиональный (многоголосый закадровый)
Профессиональный (многоголосый закадровый) СТС
Авторский одноголосый (Л. Володарский)
Оригинальная звуковая дорожка
Субтитры: Русский, английский

Режиссёр: Мартин Брест / Martin Brest
В ролях: Эдди Мёрфи, Джадж Райнхолд, Джон Эштон, Лиза Айлбакер, Ронни Кокс, Стивен Беркофф, Джеймс Руссо, Джонатан Бэнкс, Стивен Эллиот, Гилберт Р. Хилл
Описание: Чернокожий детройтский полицейский встречается со школьным другом, которого долго не видел, и вдруг того убивают. В поисках убийц полицейский едет в Лос- Анджелес.
Здесь он натыкается на глухое и упорное неприятие залетного выскочки местными полицейскими, но с помощью своего удивительного дара находить выход из любого положения, Мерфи заручается симпатией и, соответственно, реальной поддержкой двух из них. Множество драк, перестрелок, погонь, хорошей музыки и отменного юмора.

Изображение


Качество: BDRip
Формат: MKV
Видео кодек: MPEG4(AVC)
Аудио кодек: AC3 (Dolby Digital)
Видео: AVC, 1920x1080, 23.976 fps, 8915 kbps
Аудио #1: Русский AC3, 5.1, 48 kHz, ~640 kbps [Дмитрий "Гоблин" Пучков (одноголосый, закадровый)]
Аудио #2: Русский AC3, 5.1, 48 kHz, ~640 kbps [Авторский одноголосый (А. Михалев)]
Аудио #3: Русский AC3, 5.1, 48 kHz, ~448 kbps [Профессиональный (многоголосый закадровый)]
Аудио #4: Русский AC3, 2.0, 48 kHz, ~192 kbps [Профессиональный (многоголосый закадровый) СТС]
Аудио #5: Русский AC3, 2.0, 48 kHz, ~192 kbps [Авторский одноголосый (Л. Володарский)]
Аудио #6: Английский DTS, 5.1, 48 kHz, ~1510 kbps [Оригинальная звуковая дорожка]
Субтитры: Русский, английский
Скриншоты
Изображение

Изображение

Изображение

Изображение

Изображение
Свернуть

Mi
Format : Matroska
File size : 9.20 GiB
Duration : 1h 45mn
Overall bit rate : 12.5 Mbps
Encoded date : UTC 2011-05-08 18:06:50
Writing application : mkvmerge v4.6.0 ('Still Crazy After All These Years') built on Mar 10 2011 02:50:32
Writing library : libebml v1.2.0 + libmatroska v1.1.0

Video
ID : 1
Format : AVC
Format/Info : Advanced Video Codec
Format profile : High@L4.1
Format settings, CABAC : Yes
Format settings, ReFrames : 4 frames
Codec ID : V_MPEG4/ISO/AVC
Duration : 1h 45mn
Bit rate : 8 915 Kbps
Width : 1 920 pixels
Height : 1 080 pixels
Display aspect ratio : 16:9
Frame rate : 23.976 fps
Color space : YUV
Chroma subsampling : 4:2:0
Bit depth : 8 bits
Scan type : Progressive
Bits/(Pixel*Frame) : 0.179
Stream size : 6.36 GiB (69%)
Writing library : x264 core 115 r1947 b5a8ad7
Encoding settings : cabac=1 / ref=4 / deblock=1:0:0 / analyse=0x3:0x113 / me=umh / subme=8 / psy=1 / psy_rd=1.00:0.00 / mixed_ref=1 / me_range=16 / chroma_me=1 / trellis=1 / 8x8dct=1 / cqm=0 / deadzone=21,11 / fast_pskip=1 / chroma_qp_offset=-2 / threads=12 / sliced_threads=0 / nr=0 / decimate=1 / interlaced=0 / bluray_compat=0 / constrained_intra=0 / bframes=3 / b_pyramid=2 / b_adapt=2 / b_bias=0 / direct=3 / weightb=1 / open_gop=0 / weightp=2 / keyint=240 / keyint_min=24 / scenecut=40 / intra_refresh=0 / rc_lookahead=50 / rc=2pass / mbtree=1 / bitrate=8915 / ratetol=1.0 / qcomp=0.60 / qpmin=0 / qpmax=69 / qpstep=4 / cplxblur=20.0 / qblur=0.5 / ip_ratio=1.40 / aq=1:1.00
Language : English

Audio #1
ID : 2
Format : AC-3
Format/Info : Audio Coding 3
Mode extension : CM (complete main)
Codec ID : A_AC3
Duration : 1h 45mn
Bit rate mode : Constant
Bit rate : 640 Kbps
Channel(s) : 6 channels
Channel positions : Front: L C R, Side: L R, LFE
Sampling rate : 48.0 KHz
Bit depth : 16 bits
Compression mode : Lossy
Stream size : 481 MiB (5%)
Title : RUS, Puchkov 'Goblin'
Language : Russian

Audio #2
ID : 3
Format : AC-3
Format/Info : Audio Coding 3
Mode extension : CM (complete main)
Codec ID : A_AC3
Duration : 1h 45mn
Bit rate mode : Constant
Bit rate : 640 Kbps
Channel(s) : 6 channels
Channel positions : Front: L C R, Side: L R, LFE
Sampling rate : 48.0 KHz
Bit depth : 16 bits
Compression mode : Lossy
Stream size : 481 MiB (5%)
Title : RUS, Mihalev
Language : Russian

Audio #3
ID : 4
Format : AC-3
Format/Info : Audio Coding 3
Mode extension : CM (complete main)
Codec ID : A_AC3
Duration : 1h 45mn
Bit rate mode : Constant
Bit rate : 448 Kbps
Channel(s) : 6 channels
Channel positions : Front: L C R, Side: L R, LFE
Sampling rate : 48.0 KHz
Bit depth : 16 bits
Compression mode : Lossy
Stream size : 337 MiB (4%)
Title : RUS, MVO
Language : Russian

Audio #4
ID : 5
Format : AC-3
Format/Info : Audio Coding 3
Mode extension : CM (complete main)
Codec ID : A_AC3
Duration : 1h 45mn
Bit rate mode : Constant
Bit rate : 192 Kbps
Channel(s) : 2 channels
Channel positions : Front: L R
Sampling rate : 48.0 KHz
Bit depth : 16 bits
Compression mode : Lossy
Stream size : 144 MiB (2%)
Title : RUS, CTC
Language : Russian

Audio #5
ID : 6
Format : AC-3
Format/Info : Audio Coding 3
Mode extension : CM (complete main)
Codec ID : A_AC3
Duration : 1h 45mn
Bit rate mode : Constant
Bit rate : 192 Kbps
Channel(s) : 2 channels
Channel positions : Front: L R
Sampling rate : 48.0 KHz
Bit depth : 16 bits
Compression mode : Lossy
Stream size : 144 MiB (2%)
Title : RUS, Volodarskyi
Language : Russian

Audio #6
ID : 7
Format : DTS
Format/Info : Digital Theater Systems
Codec ID : A_DTS
Duration : 1h 45mn
Bit rate mode : Constant
Bit rate : 1 510 Kbps
Channel(s) : 6 channels
Channel positions : Front: L C R, Side: L R, LFE
Sampling rate : 48.0 KHz
Bit depth : 24 bits
Compression mode : Lossy
Delay relative to video : 11ms
Stream size : 1.11 GiB (12%)
Title : ENG
Language : English

Text #1
ID : 8
Format : UTF-8
Codec ID : S_TEXT/UTF8
Codec ID/Info : UTF-8 Plain Text
Title : RUS
Language : Russian

Text #2
ID : 9
Format : UTF-8
Codec ID : S_TEXT/UTF8
Codec ID/Info : UTF-8 Plain Text
Title : ENG
Language : English

Menu
00:00:00.000 : en:00:00:00.000
00:10:58.491 : en:00:10:58.491
00:19:31.670 : en:00:19:31.670
00:36:03.578 : en:00:36:03.578
00:45:07.163 : en:00:45:07.163
00:49:28.841 : en:00:49:28.841
00:58:39.599 : en:00:58:39.599
01:13:16.100 : en:01:13:16.100
01:23:22.664 : en:01:23:22.664
01:38:28.194 : en:01:38:28.194
01:41:04.433 : en:01:41:04.433

Свернуть
Не в сети
Профиль  
 Добавлено: 2011-06-24 12:29 (спустя 14 часов)
Модератор
Аватара пользователя
Стаж: 8 лет 1 месяц
Возраст: 20
Сообщений: 32130
Спасибок: 98569
Лайков: 80
отличный фильмец :co_ol:
Не в сети
Профиль  
Начать новую темуОтветить на тему  [ Сообщений: 2 ] 
Вы не можете начинать темы
Вы не можете отвечать на сообщения
Вы не можете редактировать свои сообщения
Вы не можете удалять свои сообщения