Правила форума

Здесь находятся раздачи, на которых не было полного источника (сида) более месяца.
Вы можете вернуть релиз в соответствующий раздел, для этого напишите нам в специальной теме и встаньте на раздачу.
Новые релизы, повторяющие релизы в архиве, повторами не считаются.
Начать новую темуОтветить на тему  [ 1 сообщение ] 
Сообщения
 Добавлено: 2011-12-29 13:52
Модератор релиз-группы
Аватара пользователя
Стаж: 9 лет 1 месяц
Возраст: 97
Сообщений: 11659
Спасибок: 6530
Лайков: 269
Поля / Texas Killing Fields
«Место, откуда нет пути назад»



Изображение

Страна: США
Жанр: Триллер, драма, криминал
Год выпуска: 2011
Продолжительность: 01:44:00
Перевод: Профессиональный (дублированный)

Режиссер: Эми Канаан Манн / Ami Canaan Mann

В ролях: Сэм Уортингтон, Джеффри Дин Морган, Хлоя Моретц, Джессика Честейн, Стивен Грэм, Кори Беркмейер, Трентон Перез, Морин Бреннан, Тони Бентли, Бекки Флю

Описание: В центре сюжета — два детектива: один местный техасец Майк Саудер, второй — переехавший из Нью-Йорка Брайан Хай. Герои в паре расследуют загадочные убийства жертв, найденных на Полях Смерти. Сложность в том, что места преступления как такового нет: всех жертв преступники привозят из других мест и просто сваливают в Техасе — отсюда и название Поля Смерти для этой области. Внезапно из следователей детективы сами превращаются в жертв: преступники начинают играть с ними в кошки-мышки, подсовывая улики и донимая звонками с телефонов убитых. Когда они похищают местную девочку Энн, Саудер и Хай идут на все, чтобы найти ее.
Изображение
Качество : BDRip 1080p
Формат : MKV
Видео: MPEG-4 AVC, 8959 Кбит/с, 1920x800
Аудио: Русский (AC3, 6 ch, 384 Кбит/с)
Аудио: Английский (DTS, 6 ch, 1510 Кбит/с)
скриншоты
Изображение

Изображение

Изображение

Изображение
Свернуть
Mi
Format : Matroska
Format version : Version 2
File size : 7.93 GiB
Duration : 1h 44mn
Overall bit rate : 10.8 Mbps
Encoded date : UTC 2011-12-24 05:38:00
Writing application : mkvmerge v3.2.0 ('Beginnings') built on Feb 12 2010 16:46:17
Writing library : libebml v0.7.9 + libmatroska v0.8.1

Video
ID : 1
Format : AVC
Format/Info : Advanced Video Codec
Format profile : High@L4.0
Format settings, CABAC : Yes
Format settings, ReFrames : 5 frames
Codec ID : V_MPEG4/ISO/AVC
Duration : 1h 44mn
Bit rate : 8 959 Kbps
Width : 1 920 pixels
Height : 800 pixels
Display aspect ratio : 2.40:1
Frame rate : 24.000 fps
Color space : YUV
Chroma subsampling : 4:2:0
Bit depth : 8 bits
Scan type : Progressive
Bits/(Pixel*Frame) : 0.243
Stream size : 6.39 GiB (81%)
Writing library : x264 core 120 r2120 0c7dab9
Encoding settings : cabac=1 / ref=5 / deblock=1:0:0 / analyse=0x3:0x133 / me=umh / subme=7 / psy=1 / psy_rd=1.00:0.00 / mixed_ref=1 / me_range=16 / chroma_me=1 / trellis=1 / 8x8dct=1 / cqm=0 / deadzone=21,11 / fast_pskip=0 / chroma_qp_offset=-2 / threads=6 / sliced_threads=0 / nr=0 / decimate=1 / interlaced=0 / bluray_compat=0 / constrained_intra=0 / bframes=3 / b_pyramid=2 / b_adapt=2 / b_bias=0 / direct=3 / weightb=1 / open_gop=0 / weightp=2 / keyint=250 / keyint_min=24 / scenecut=40 / intra_refresh=0 / rc_lookahead=50 / rc=2pass / mbtree=1 / bitrate=8959 / ratetol=1.0 / qcomp=0.60 / qpmin=0 / qpmax=69 / qpstep=4 / cplxblur=20.0 / qblur=0.5 / ip_ratio=1.40 / aq=1:1.00
Language : English

Audio #1
ID : 2
Format : AC-3
Format/Info : Audio Coding 3
Mode extension : CM (complete main)
Codec ID : A_AC3
Duration : 1h 44mn
Bit rate mode : Constant
Bit rate : 384 Kbps
Channel(s) : 6 channels
Channel positions : Front: L C R, Side: L R, LFE
Sampling rate : 48.0 KHz
Bit depth : 16 bits
Compression mode : Lossy
Stream size : 288 MiB (4%)
Language : Russian

Audio #2
ID : 3
Format : DTS
Format/Info : Digital Theater Systems
Codec ID : A_DTS
Duration : 1h 44mn
Bit rate mode : Constant
Bit rate : 1 510 Kbps
Channel(s) : 6 channels
Channel positions : Front: L C R, Side: L R, LFE
Sampling rate : 48.0 KHz
Bit depth : 24 bits
Compression mode : Lossy
Stream size : 1.10 GiB (14%)
Language : English

Свернуть
_________________
Изображение
Не в сети
Профиль  
Начать новую темуОтветить на тему  [ 1 сообщение ] 
Вы не можете начинать темы
Вы не можете отвечать на сообщения
Вы не можете редактировать свои сообщения
Вы не можете удалять свои сообщения