Правила форума

Здесь находятся раздачи, на которых не было полного источника (сида) более месяца.
Вы можете вернуть релиз в соответствующий раздел, для этого напишите нам в специальной теме и встаньте на раздачу.
Новые релизы, повторяющие релизы в архиве, повторами не считаются.
Начать новую темуОтветить на тему  [ Сообщений: 7 ] 
Сообщения
 Добавлено: 2012-12-18 15:19
Модератор релиз-группы
Аватара пользователя
Стаж: 6 лет 5 месяцев
Возраст: 25
Сообщений: 622
Спасибок: 10257
Лайков: 7
Помогите стать отцом / Not Suitable for Children

Изображение


Год выпуска: 2012
Страна: Австралия
Жанр: Драма, комедия
Продолжительность: 01:35:52
Перевод: Профессиональный (полное дублирование)

Режиссёр: Питер Темплмен
В ролях: Райан Квантен, Аделе Вуко, Сара Снук, Райан Корр, Бояна Новакович, Сьюзэн Прайор, Кэтерин Бек, Элис Паркинсон, Лулу МакКлэтчи, Дэниэл Хеншэлл
Описание: Молодой плейбой узнает, что у него остался один месяц до того, как он станет бесплодным. И он решает как можно скорее зачать ребенка.
Дата мировой премьеры: 6 июня 2012
Дата российской премьеры: 8 ноября 2012, «Кинопром»
Дата выхода DVD релиза: 17 декабря 2012, «Новый Диск»

Изображение 5.5/10 (261 votes)
Изображение 5.4/10 (916 votes)
Релиз группы: Изображение
Качество: DVD5 R5
Формат: DVD Video
Видео кодек: MPEG2
Аудио кодек: AC3 (Dolby Digital)
Видео: Dolby AC3 48000Hz 6ch 224kbps
Аудио #1: MPEG2 Video 720x480 (16:9) 29.97fps 8000kbps
Media Info
Общее
Полное имя : D:\news\VIDEO_TS\VTS_01_1.VOB
Формат : MPEG-PS
Размер файла : 1024 Мбайт
Продолжительность : 29 м.
Режим общего битрейта : Переменный
Общий поток : 4829 Кбит/сек

Видео
Идентификатор : 224 (0xE0)
Формат : MPEG Video
Версия формата : Version 2
Профиль формата : Main@Main
Параметр BVOP формата : Да
Параметр матрицы формата : Выборочная
Продолжительность : 25 м.
Вид битрейта : Переменный
Битрейт : 5294 Кбит/сек
Максимальный битрейт : 8000 Кбит/сек
Ширина : 720 пикселей
Высота : 480 пикселей
Соотношение сторон : 16:9
Частота кадров : 23,976 кадра/сек
Стандарт вещания : NTSC
Цветовое пространство : YUV
Субдискретизация насыщенности : 4:2:0
Битовая глубина : 8 бит
Тип развёртки : Чересстрочная
Порядок развёртки : Верхнее поле первое
Метод сжатия : С потерями
Бит/(Пиксели*Кадры) : 0.420
Размер потока : 922 Мбайт (90%)

Аудио #1
Идентификатор : 189 (0xBD)-128 (0x80)
Формат : AC-3
Формат/Информация : Audio Coding 3
Расширение режима : CM (complete main)
Параметр Endianness формата : Big
Режим смешивания : DVD-Video
Продолжительность : 29 м.
Вид битрейта : Постоянный
Битрейт : 192 Кбит/сек
Каналы : 2 канала
Расположение каналов : Front: L R
Частота : 48,0 КГц
Битовая глубина : 16 бит
Метод сжатия : С потерями
Задержка видео : -33 мс.
Размер потока : 40,7 Мбайт (4%)

Аудио #2
Идентификатор : 189 (0xBD)-129 (0x81)
Формат : AC-3
Формат/Информация : Audio Coding 3
Расширение режима : CM (complete main)
Параметр Endianness формата : Big
Режим смешивания : DVD-Video
Продолжительность : 29 м.
Вид битрейта : Постоянный
Битрейт : 192 Кбит/сек
Каналы : 2 канала
Расположение каналов : Front: L R
Частота : 48,0 КГц
Битовая глубина : 16 бит
Метод сжатия : С потерями
Задержка видео : -33 мс.
Размер потока : 40,7 Мбайт (4%)

Меню
Свернуть

Скриншоты
Изображение
Изображение
Изображение
Изображение
Изображение
Изображение
Свернуть
_________________
Изображение


Последний раз редактировалось Slovetskii 2012-12-18 20:11, всего редактировалось 1 раз.
Не в сети
Профиль  
 Добавлено: 2012-12-18 20:01 (спустя 4 часа)
Руководитель релиз-группы
Аватара пользователя
Стаж: 7 лет 4 месяца
Возраст: 31
Сообщений: 3407
Спасибок: 46728
Лайков: 5
Slovetskii
Скриншоты меню плиз :)
Не в сети
Профиль  
 Добавлено: 2012-12-18 20:11 (спустя 10 минут)
Модератор релиз-группы
Аватара пользователя
Стаж: 6 лет 5 месяцев
Возраст: 25
Сообщений: 622
Спасибок: 10257
Лайков: 7
askboy
Готово.
_________________
Изображение
Не в сети
Профиль  
 Добавлено: 2012-12-18 20:15 (спустя 3 минуты)
Руководитель релиз-группы
Аватара пользователя
Стаж: 7 лет 4 месяца
Возраст: 31
Сообщений: 3407
Спасибок: 46728
Лайков: 5

Slovetskii:

Video 720x480
лицензия заявлена в PAL
пока # сомнительно
Не в сети
Профиль  
 Добавлено: 2012-12-18 20:18 (спустя 3 минуты)
Модератор релиз-группы
Аватара пользователя
Стаж: 6 лет 5 месяцев
Возраст: 25
Сообщений: 622
Спасибок: 10257
Лайков: 7

askboy:

Соотношение сторон : 16:9
В меди инфо вроде все норм. И другая лицензия врятли выйдет. Диск лицензионный.
_________________
Изображение
Не в сети
Профиль  
 Добавлено: 2012-12-18 20:37 (спустя 18 минут)
Руководитель релиз-группы
Аватара пользователя
Стаж: 7 лет 4 месяца
Возраст: 31
Сообщений: 3407
Спасибок: 46728
Лайков: 5
Slovetskii
PAL это 720x576 и 25 кадров в секунду...
а здесь больше похоже на кастом с самопальной менюшкой :par_don:
Не в сети
Профиль  
 Добавлено: 2013-01-12 23:56 (спустя 25 дней)
Руководитель релиз-группы
Аватара пользователя
Стаж: 7 лет 4 месяца
Возраст: 31
Сообщений: 3407
Спасибок: 46728
Лайков: 5
viewtopic.php?f=1746&t=495582
Не в сети
Профиль  
Начать новую темуОтветить на тему  [ Сообщений: 7 ] 
Вы не можете начинать темы
Вы не можете отвечать на сообщения
Вы не можете редактировать свои сообщения
Вы не можете удалять свои сообщения