Правила форума

Здесь находятся раздачи, на которых не было полного источника (сида) более месяца.
Вы можете вернуть релиз в соответствующий раздел, для этого напишите нам в специальной теме и встаньте на раздачу.
Новые релизы, повторяющие релизы в архиве, повторами не считаются.
Начать новую темуОтветить на тему  [ Сообщений: 11 ] 
Сообщения
 Добавлено: 2013-09-17 13:17
Книголюб
Аватара пользователя
Стаж: 7 лет 2 месяца
Сообщений: 2823
Спасибок: 48828
Лайков: 73
После нашей эры
After Earth

«Danger is real. Fear is a choice.»
Изображение


Год выпуска: 2013
Страна: США (Columbia Pictures, Overbrook Entertainment, Blinding Edge Pictures)
Жанр: Фантастика, Приключения, Боевик
Продолжительность: 01:40:02
Перевод: Дублированный (iTunes Russia)

Режиссёр: М. Найт Шьямалан
В ролях: Уилл Смит, Джейден Смит, Зои Кравиц, Изабель Фурман, Кристофер Хивджу, Софи Оконедо, Дэвид Денман, Гленн Моршауэр, Линкольн Льюис
Описание: События разворачиваются через тысячу лет после катастрофы, вынудившей человечество покинуть Землю. Новым домом становится планета под названием Нова Прайм. Легендарный генерал Сайфер Рейдж возвращается с очередного боевого задания в семью, которая раньше обходилась без его родительского внимания, чтобы стать отцом своему 13-летнему сыну Китаю. Во время астероидной бури летательный аппарат с папой и сыном на борту терпит крушение, падая на незнакомую и опасную Землю. И пока Рейдж-старший на последнем дыхании лежит среди обломков своего корабля, сын должен пересечь враждебный ландшафт, чтобы запустить их спасательный маячок. Ни о чем большем юноша в своей жизни не мечтал: быть солдатом, как отец, — его заветное желание. Сегодня у него есть шанс проявить себя.
Рейтинг MPAA: Рейтинг PG-13 (Дети до 13 лет допускаются на фильм только с родителями)
Мировая премьера: 1 мая 2013
Премьера в России: 6 июня 2013, «WDSSPR»
Бюджет: $130 000 000
Изображение 6.22115 565

Качество: WEB-DL 720p
Формат: MKV
Видео кодек: H264 (AVC)
Аудио кодек: AC3 (Dolby Digital)
Видео: 1280x532 23.976fps 3 826 Kbps
Аудио #1: RUS: 48000Hz 6ch 384 Kbps
Аудио #2: ENG: 48000Hz stereo 192 Kbps
MediaInfo
General
Unique ID : 237150760985027955107015414840793862491 (0xB269933FC08414A7B5FB52766675915B)
Complete name : K:\Torrent\Posle nashej ery..mkv
Format : Matroska
Format version : Version 2
File size : 3.14 GiB
Duration : 1h 40mn
Overall bit rate : 4 492 Kbps
Encoded date : UTC 2013-09-16 20:31:02
Writing application : mkvmerge v5.4.0 ('Piper') built on Mar 10 2012 13:34:39
Writing library : libebml v1.2.3 + libmatroska v1.3.0

Video
ID : 1
Format : AVC
Format/Info : Advanced Video Codec
Format profile : Main@L3.1
Format settings, CABAC : No
Format settings, ReFrames : 2 frames
Codec ID : V_MPEG4/ISO/AVC
Duration : 1h 40mn
Bit rate : 3 826 Kbps
Width : 1 280 pixels
Height : 532 pixels
Display aspect ratio : 2.40:1
Frame rate : 23.976 fps
Color space : YUV
Chroma subsampling : 4:2:0
Bit depth : 8 bits
Scan type : Progressive
Bits/(Pixel*Frame) : 0.234
Stream size : 2.67 GiB (85%)
Language : English
Default : Yes
Forced : No
Color primaries : BT.709-5, BT.1361, IEC 61966-2-4, SMPTE RP177
Transfer characteristics : BT.709-5, BT.1361
Matrix coefficients : BT.709-5, BT.1361, IEC 61966-2-4 709, SMPTE RP177

Audio #1
ID : 2
Format : AC-3
Format/Info : Audio Coding 3
Mode extension : CM (complete main)
Codec ID : A_AC3
Duration : 1h 40mn
Bit rate mode : Constant
Bit rate : 384 Kbps
Channel(s) : 6 channels
Channel positions : Front: L C R, Side: L R, LFE
Sampling rate : 48.0 KHz
Bit depth : 16 bits
Compression mode : Lossy
Stream size : 275 MiB (9%)
Language : Russian
Default : Yes
Forced : No

Audio #2
ID : 3
Format : AC-3
Format/Info : Audio Coding 3
Mode extension : CM (complete main)
Codec ID : A_AC3
Duration : 1h 40mn
Bit rate mode : Constant
Bit rate : 192 Kbps
Channel(s) : 2 channels
Channel positions : Front: L R
Sampling rate : 48.0 KHz
Bit depth : 16 bits
Compression mode : Lossy
Stream size : 137 MiB (4%)
Language : English
Default : No
Forced : No

Menu
00:00:00.000 : en:1
00:08:51.000 : en:2
00:15:34.000 : en:3
00:21:32.000 : en:4
00:30:47.000 : en:5
00:36:42.000 : en:6
00:41:10.000 : en:7
00:47:02.000 : en:8
00:52:32.000 : en:9
00:59:44.000 : en:10
01:05:20.000 : en:11
01:11:04.000 : en:12
01:15:41.000 : en:13
01:20:11.000 : en:14
01:24:32.000 : en:15
01:29:51.000 : en:16


Свернуть

Скриншоты
Изображение
Изображение
Изображение
Свернуть


Последний раз редактировалось coldun 2013-09-17 18:05, всего редактировалось 1 раз.
Не в сети
Профиль  
 Добавлено: 2013-09-17 14:04 (спустя 47 минут)
Аватара пользователя
Стаж: 7 лет 8 месяцев
Возраст: 24
Сообщений: 299
Спасибок: 71
Лайков: 2
в 1080 будет?
Не в сети
Профиль  
 Добавлено: 2013-09-17 20:50 (спустя 6 часов)
Аватара пользователя
Стаж: 9 лет
Сообщений: 167
Спасибок: 38
да давно жду в 1080
Не в сети
Профиль  
 Добавлено: 2013-09-18 22:20 (спустя 1 день 1 час)
Аватара пользователя
Стаж: 8 лет
Сообщений: 1391
Спасибок: 39
Лайков: 64
спс за качество...не фильм а тоска зеленая...сопливая...больше понравица этим...што с титьками...
Не в сети
Профиль  
 Добавлено: 2013-09-20 08:28 (спустя 1 день 10 часов)
Аватара пользователя
Стаж: 5 лет
Возраст: 27
Сообщений: 205
Лайков: 2
СП ЖДАЛ ОЧЕНЬ
Не в сети
Профиль  
 Добавлено: 2013-09-20 18:15 (спустя 9 часов)
Аватара пользователя
Стаж: 7 лет 11 месяцев
Возраст: 34
Сообщений: 116
Лайков: 6
Ну и ересь) стока нелепости)))
Не в сети
Профиль  
 Добавлено: 2013-09-20 19:25 (спустя 1 час 9 минут)
Модератор
Аватара пользователя
Стаж: 8 лет 11 месяцев
Сообщений: 516
Спасибок: 26888
Лайков: 1
zarubejnoe-kino-hd-video-f1750/posle-nashey-eri-after-earth-m-nayt-shyamalan-t517932.html
Не в сети
Профиль  
 Добавлено: 2013-09-29 16:41 (спустя 8 дней)
Стаж: 7 лет 10 месяцев
Сообщений: 1
как качнуть этот фильм?
Не в сети
Профиль  
 Добавлено: 2013-12-07 22:05 (спустя 2 месяца 8 дней)
Аватара пользователя
Стаж: 8 лет
Сообщений: 1391
Спасибок: 39
Лайков: 64
[quote="МАМАА"]как качнуть этот фильм?[/quote]
первое сообщение (за 4 года) всегда самое серьезное...
Не в сети
Профиль  
 Добавлено: 2013-12-08 21:25 (спустя 23 часа)
Стаж: 3 года
:bra_vo:
Не в сети
Профиль  
 Добавлено: 2013-12-16 16:32 (спустя 7 дней)
Стаж: 2 года 11 месяцев
Сообщений: 9
Не понравился
Не в сети
Профиль  
Начать новую темуОтветить на тему  [ Сообщений: 11 ] 
Вы не можете начинать темы
Вы не можете отвечать на сообщения
Вы не можете редактировать свои сообщения
Вы не можете удалять свои сообщения