Правила форума

Здесь находятся раздачи, на которых не было полного источника (сида) более месяца.
Вы можете вернуть релиз в соответствующий раздел, для этого напишите нам в специальной теме и встаньте на раздачу.
Новые релизы, повторяющие релизы в архиве, повторами не считаются.
Начать новую темуОтветить на тему  [ 1 сообщение ] 
Сообщения
 Добавлено: 2011-11-14 19:24
Книголюб
Аватара пользователя
Стаж: 7 лет 2 месяца
Сообщений: 2823
Спасибок: 48828
Лайков: 73
После секса
After Sex
Изображение


Год выпуска: 2007
Страна: США
Слоган: «Nine couples. One conversation.»
Жанр: Драма, Комедия
Продолжительность: 01:17:08
Перевод: Профессиональный (одноголосый закадровый)

Режиссёр: Эрик Эмадио
В ролях: Мила Кунис, Джейн Сеймур, Эммануэль Крику, Тэрин Мэннинг, Марк Блукас, Зои Салдана, Мэрайя Бруна, Хосе Пабло Кантилльо, Джеймс ДеБелло
Описание: Острая комедия отношений, которая использует секс как фон, чтобы исследовать человеческие эмоции через доверие и уязвимость. Это — юмористический и честный взгляд на сложность современных повседневных отношений.
Мировая премьера: 14 февраля 2007,
Бюджет: $1 000 000
Изображение 5.441 509

Качество: BDRip 1080p
Формат: MKV
Видео кодек: AVC
Аудио кодек: AC3 (Dolby Digital)
Видео: 1920x1080, 11,3 Мбит/сек, 25,000 кадр/сек 0.223Bits/Pixel
Аудио #1: Russian: AC-3, 256 Кбит/сек, 2Ch, 48,0 GHz
Аудио #2: English: AC-3, 640 Кбит/сек, 6Ch, 48,0 GHz


MediaInfo
General
Unique ID : 230239301524629509171340726664450439718 (0xAD3679FD173C46AB97A7B12FC0FE7A26)
Complete name : I:\After.Sex.2007.BluRay.1080p .mkv
Format : Matroska
File size : 6.70 GiB
Duration : 1h 17mn
Overall bit rate : 12.4 Mbps
Encoded date : UTC 2011-11-11 14:23:57
Writing application : mkvmerge v4.5.0 ('Speed of Light') сборка от Feb 1 2011 02:10:32
Writing library : libebml v1.2.0 + libmatroska v1.1.0

Video
ID : 1
Format : AVC
Format/Info : Advanced Video Codec
Format profile : High@L4.1
Format settings, CABAC : Yes
Format settings, ReFrames : 4 frames
Codec ID : V_MPEG4/ISO/AVC
Duration : 1h 17mn
Bit rate : 11.5 Mbps
Width : 1 920 pixels
Height : 1 080 pixels
Display aspect ratio : 16:9
Frame rate : 25.000 fps
Color space : YUV
Chroma subsampling : 4:2:0
Bit depth : 8 bits
Scan type : Progressive
Bits/(Pixel*Frame) : 0.223
Stream size : 6.08 GiB (91%)
Title : After.Sex.2007.BluRay.1080p.x264.DD51-MySiLU
Writing library : x264 core 110 r1804 e89c4cf
Encoding settings : cabac=1 / ref=4 / deblock=1:-2:-2 / analyse=0x3:0x113 / me=umh / subme=10 / psy=1 / psy_rd=1.20:0.20 / mixed_ref=1 / me_range=32 / chroma_me=1 / trellis=2 / 8x8dct=1 / cqm=0 / deadzone=21,11 / fast_pskip=0 / chroma_qp_offset=-3 / threads=12 / sliced_threads=0 / nr=0 / decimate=0 / interlaced=0 / constrained_intra=0 / bframes=5 / b_pyramid=2 / b_adapt=2 / b_bias=0 / direct=3 / weightb=1 / open_gop=0 / weightp=2 / keyint=250 / keyint_min=2 / scenecut=40 / intra_refresh=0 / rc_lookahead=72 / rc=2pass / mbtree=1 / bitrate=11537 / ratetol=1.0 / qcomp=0.60 / qpmin=10 / qpmax=51 / qpstep=4 / cplxblur=20.0 / qblur=0.5 / vbv_maxrate=38000 / vbv_bufsize=38000 / ip_ratio=1.40 / aq=1:1.00 / nal_hrd=none
Language : English

Audio #1
ID : 2
Format : AC-3
Format/Info : Audio Coding 3
Mode extension : CM (complete main)
Codec ID : A_AC3
Duration : 1h 17mn
Bit rate mode : Constant
Bit rate : 640 Kbps
Channel(s) : 6 channels
Channel positions : Front: L C R, Side: L R, LFE
Sampling rate : 48.0 KHz
Bit depth : 16 bits
Compression mode : Lossy
Stream size : 353 MiB (5%)
Title : English AC3 640kb/s DD5.1
Language : English

Audio #2
ID : 3
Format : AC-3
Format/Info : Audio Coding 3
Mode extension : CM (complete main)
Codec ID : A_AC3
Duration : 1h 17mn
Bit rate mode : Constant
Bit rate : 256 Kbps
Channel(s) : 2 channels
Channel positions : Front: L R
Sampling rate : 48.0 KHz
Bit depth : 16 bits
Compression mode : Lossy
Stream size : 141 MiB (2%)
Свернуть

Скриншоты
Изображение
Изображение
Изображение
Изображение
Свернуть
Не в сети
Профиль  
Начать новую темуОтветить на тему  [ 1 сообщение ] 
Вы не можете начинать темы
Вы не можете отвечать на сообщения
Вы не можете редактировать свои сообщения
Вы не можете удалять свои сообщения