Правила форума

Здесь находятся раздачи, на которых не было полного источника (сида) более месяца.
Вы можете вернуть релиз в соответствующий раздел, для этого напишите нам в специальной теме и встаньте на раздачу.
Новые релизы, повторяющие релизы в архиве, повторами не считаются.
Начать новую темуОтветить на тему  [ 1 сообщение ] 
Сообщения
 Добавлено: 2014-09-23 07:28
DVD Release Group
Аватара пользователя
Стаж: 7 лет 1 месяц
Сообщений: 3546
Спасибок: 247026
Лайков: 1018
Посвященный

The Giver


Изображение


Год выпуска: 2014
Страна: США
Жанр: Фантастика, драма
Продолжительность: 01:37:12
Перевод: Профессиональный (полное дублирование)
Субтитры: Нет
Режиссер: Филлип Нойс
В ролях: Брентон Туэйтс, Мэрил Стрип, Джефф Бриджес, Александр Скарсгард, Кэти Холмс, Тейлор Свифт, Камерон Монахэн, Одейя Раш, Эмма Трамбле, Катарина Дэмм
Описание: Юный Джонас живет в идеальном, максимально цивилизованном обществе будущего, где больше нет войн, боли, страданий, радости, воспоминаний. Для каждого члена здесь определен идеальный порядок существования, и теперь никому не приходится выбирать шаг, мысль, цвет - все вокруг однозначно серое... По решению Совета общества Джонас назначается Хранителем памяти, которую он должен перенять у Учителя по имени Дающий. Юноше открывается правда о настоящем мире, но чтобы освободить свой мир, он должен бросить ему вызов...
Изображение
Sample:
http://multi-up.com/1000880
Качество: WEB-DL 1080p
Формат: MKV
Видео кодек: H.264
Аудио кодек: AC3
Видео: 1920x810 24fps 3686kbps
Аудио: 48kHz 6ch 384kbps
"MediaInfo"
Формат : Matroska
Версия формата : Version 4 / Version 2
Размер файла : 2,82 Гбайт
Продолжительность : 1 ч. 37 м.
Общий поток : 4153 Кбит/сек
Дата кодирования : UTC 2014-09-22 18:33:11
Программа кодирования : mkvmerge v6.9.1 ('Blue Panther') 64bit built on Apr 18 2014 18:23:38
Библиотека кодирования : libebml v1.3.0 + libmatroska v1.4.1

Видео
Идентификатор : 1
Формат : AVC
Формат/Информация : Advanced Video Codec
Профиль формата : High@L4.0
Параметр CABAC формата : Да
Параметр ReFrames формата : 5 кадров
Идентификатор кодека : V_MPEG4/ISO/AVC
Продолжительность : 1 ч. 37 м.
Битрейт : 3686 Кбит/сек
Ширина : 1920 пикселей
Высота : 810 пикселей
Соотношение сторон : 2,40:1
Режим частоты кадров : Постоянный
Частота кадров : 24,000 кадра/сек
Цветовое пространство : YUV
Субдискретизация насыщенности : 4:2:0
Битовая глубина : 8 бит
Тип развёртки : Прогрессивная
Бит/(Пиксели*Кадры) : 0.099
Размер потока : 2,50 Гбайт (89%)
Язык : English
Default : Да
Forced : Нет
Основные цвета : BT.709
Характеристики трансфера : BT.709
Коэффициенты матрицы : BT.709

Аудио
Идентификатор : 2
Формат : AC-3
Формат/Информация : Audio Coding 3
Расширение режима : CM (complete main)
Параметр Endianness формата : Big
Идентификатор кодека : A_AC3
Продолжительность : 1 ч. 37 м.
Вид битрейта : Постоянный
Битрейт : 384 Кбит/сек
Каналы : 6 каналов
Расположение каналов : Front: L C R, Side: L R, LFE
Частота : 48,0 КГц
Битовая глубина : 16 бит
Метод сжатия : С потерями
Размер потока : 267 Мбайт (9%)
Язык : Russian
Default : Да
Forced : Нет

Меню
00:00:00.000 : en:Глава 1
00:06:46.000 : en:Глава 2
00:12:35.000 : en:Глава 3
00:19:28.000 : en:Глава 4
00:26:11.000 : en:Глава 5
00:30:39.000 : en:Глава 6
00:36:25.000 : en:Глава 7
00:41:22.000 : en:Глава 8
00:46:28.000 : en:Глава 9
00:51:19.000 : en:Глава 10
00:56:19.000 : en:Глава 11
01:01:07.000 : en:Глава 12
01:06:51.000 : en:Глава 13
01:12:23.000 : en:Глава 14
01:18:03.000 : en:Глава 15
01:23:11.000 : en:Глава 16
Свернуть

"Скриншоты"
Изображение
Изображение
Изображение
Свернуть
В сети
Профиль  
Начать новую темуОтветить на тему  [ 1 сообщение ] 
Вы не можете начинать темы
Вы не можете отвечать на сообщения
Вы не можете редактировать свои сообщения
Вы не можете удалять свои сообщения