Правила форума

Здесь находятся раздачи, на которых не было полного источника (сида) более месяца.
Вы можете вернуть релиз в соответствующий раздел, для этого напишите нам в специальной теме и встаньте на раздачу.
Новые релизы, повторяющие релизы в архиве, повторами не считаются.
Начать новую темуОтветить на тему  [ 1 сообщение ] 
Сообщения
 Добавлено: 2011-03-28 17:26
Модератор
Аватара пользователя
Стаж: 8 лет 1 месяц
Возраст: 20
Сообщений: 32130
Спасибок: 98561
Лайков: 80
Потерянное будущее / The Lost Future

Изображение
Год выпуска: 2010
Страна: Изображение США, Изображение Германия, Изображение ЮАР
Жанр: фантастика, приключения
Продолжительность: 01:30:52
Перевод: Профессиональный (многоголосый, закадровый) [лицензия]

Режиссер: Микаэл Саломон / Mikael Salomon
Сценарий: Йонас Бауэр / Jonas Bauer, Бев Дойл / Bev Doyle, Дайан Дуан / Diane Duane, Ричард Курти / Richard Kurti
Продюсер: Moritz Polter, Йонас Бауэр / Jonas Bauer, Дэвид Викт / David Wicht, Рола Бауэр / Rola Bauer, Theuns De Wet
Оператор: Пол Джилпин / Paul Gilpin
Композитор: Майкл Ричард Плауман / Michael Richard Plowman, Петр Вчеличка / Petr Vcelicka

В ролях: Шон Бин (Amal), Аннабелль Уоллис (Dorel), Сэм Клафлин (Kaleb), Кори Севьер (Savan), Элинор Томлинсон (Miru), Garth Breytenbach (Remi), Luthuli Dlamini (Lars), Джессика Хайнс (Neenah), Пол Хэмпшир (Brotherhood Man #2), Дэн Херст (Rolan), Поуп Джеррод (Buren), Steven Jubber (Evan)
Описание: Будущее наступило. Здесь нет ни звездолетов, ни небоскребов, ни модной одежды, ни высокого искусства. Человечество потерпело крах. После тысяч лет эволюции оно оказалось на самом дне! Теперь наше место обитания - джунгли, таящие опасности на каждом шагу. Сбиваясь в стаи, уцелевшие люди пытаются просто выжить. Только некоторые хранят память о великом прошлом человечества. И они отправятся на самый край земли, где по преданию находится Призрачный город. Чтобы вспомнить, кто они. Вспомнить свое будущее...

Раздача: Изображение

Изображение
Мировая премьера: 13 ноября 2010
Изображение Релиз на DVD: 15 марта 2011, «Lizard Cinema Trade»
Качество: BDRip 720p R5
Контейнер: MKV
Качество: BDRip 720p (Исх. BD1080/ The.Lost.Future.2010.1080p.BluRay.DTS.x264-KRM)
Видео: x264, 5379 kb/s, 1280x720, 24 fps
Аудио №1: AC3; 448 Kbps; 6 ch; 48 kHz; 16 Bit [Профессиональный многоголосый]
Аудио №2: DTS; 1536 Kbps; 6 ch; 48 kHz; 24 Bit [Оригинал]

MediaInfo
Общее
Уникальный идентификатор : 214061137195958917150488884409520686028 (0xA10AACE7606EFE76BB70EB95BB6D03CC)
Полное имя : E:\The.Lost.Future.2010.BDRip.720p.x264.mkv
Формат : Matroska
Размер файла : 4,66 Гбайт
Продолжительность : 1 ч. 30 м.
Общий поток : 7339 Кбит/сек
Дата кодирования : UTC 2011-03-27 11:29:31
Программа кодирования : mkvmerge v4.4.0 ('Die Wiederkehr') сборка от Oct 31 2010 21:52:48
Библиотека кодирования : libebml v1.0.0 + libmatroska v1.0.0
Видео
Идентификатор : 1
Формат : AVC
Формат/Информация : Advanced Video Codec
Профиль формата : High@L4.1
Параметр CABAC формата : Да
Параметр ReFrames формата : 8 кадры
Идентификатор кодека : V_MPEG4/ISO/AVC
Продолжительность : 1 ч. 30 м.
Битрейт : 5379 Кбит/сек
Ширина : 1280 пикс.
Высота : 720 пикс.
Соотношение сторон : 16:9
Частота кадров : 24,000 кадр/сек
Цветовое пространство : YUV
Подвыборка цветности : 4:2:0
Битовая глубина : 8 бит
Тип развёртки : Прогрессивная
Бит/(Пиксели*Кадры) : 0.243
Размер потока : 3,32 Гбайт (71%)
Библиотека кодирования : x264 core 114 r1913 5fd3dce
Настройки программы : cabac=1 / ref=8 / deblock=1:-2:-2 / analyse=0x3:0x133 / me=umh / subme=9 / psy=1 / psy_rd=1.20:0.20 / mixed_ref=1 / me_range=16 / chroma_me=1 / trellis=2 / 8x8dct=1 / cqm=0 / deadzone=21,11 / fast_pskip=1 / chroma_qp_offset=-3 / threads=12 / sliced_threads=0 / nr=0 / decimate=0 / interlaced=0 / constrained_intra=0 / bframes=3 / b_pyramid=2 / b_adapt=2 / b_bias=0 / direct=3 / weightb=1 / open_gop=0 / weightp=2 / keyint=250 / keyint_min=2 / scenecut=40 / intra_refresh=0 / rc_lookahead=60 / rc=2pass / mbtree=1 / bitrate=5379 / ratetol=1.0 / qcomp=0.60 / qpmin=10 / qpmax=51 / qpstep=4 / cplxblur=20.0 / qblur=0.5 / vbv_maxrate=38000 / vbv_bufsize=38000 / nal_hrd=none / ip_ratio=1.40 / aq=1:1.00
Язык : English
Аудио #1
Идентификатор : 2
Формат : AC-3
Формат/Информация : Audio Coding 3
Расширение режима : CM (complete main)
Идентификатор кодека : A_AC3
Продолжительность : 1 ч. 30 м.
Вид битрейта : Постоянный
Битрейт : 448 Кбит/сек
Канал(ы) : 6 канала(ов)
Расположение каналов : Front: L C R, Side: L R, LFE
Частота : 48,0 КГц
Битовая глубина : 16 бит
Метод сжатия : С потерями
Задержка видео : 1 с. 120 мс.
Размер потока : 291 Мбайт (6%)
Язык : Russian
Аудио #2
Идентификатор : 3
Формат : DTS
Формат/Информация : Digital Theater Systems
Идентификатор кодека : A_DTS
Продолжительность : 1 ч. 30 м.
Вид битрейта : Постоянный
Битрейт : 1510 Кбит/сек
Канал(ы) : 6 канала(ов)
Расположение каналов : Front: L C R, Side: L R, LFE
Частота : 48,0 КГц
Битовая глубина : 24 бит
Метод сжатия : С потерями
Размер потока : 981 Мбайт (21%)
Язык : English
Текст
Идентификатор : 4
Формат : UTF-8
Идентификатор кодека : S_TEXT/UTF8
Идентификатор кодека/Информация : UTF-8 Plain Text
Язык : Russian
Свернуть
Скриншоты
Изображение
Изображение
Изображение
Изображение
Свернуть
Не в сети
Профиль  
Начать новую темуОтветить на тему  [ 1 сообщение ] 
Вы не можете начинать темы
Вы не можете отвечать на сообщения
Вы не можете редактировать свои сообщения
Вы не можете удалять свои сообщения