Правила форума

Здесь находятся раздачи, на которых не было полного источника (сида) более месяца.
Вы можете вернуть релиз в соответствующий раздел, для этого напишите нам в специальной теме и встаньте на раздачу.
Новые релизы, повторяющие релизы в архиве, повторами не считаются.
Начать новую темуОтветить на тему  [ 1 сообщение ] 
Сообщения
 Добавлено: 2011-05-25 19:31
Модератор
Аватара пользователя
Стаж: 7 лет 9 месяцев
Сообщений: 4521
Спасибок: 112870
Лайков: 583
Изображение

Потустороннее / Hereafter

Год выпуска: 2010
Страна: США
Жанр: фэнтези, драма
Продолжительность: 02:09:02
Перевод: Профессиональный (многоголосый) [лицензия]

Режиссёр: Клинт Иствуд
Сценарий: Питер Морган
Продюсер: Клинт Иствуд, Кэтлин Кеннеди, Роберт Лоренц, Фрэнк Маршалл, Тим Мур
Оператор: Том Стерн
Композитор: Клинт Иствуд

В ролях: Мэтт Дэймон (George Lonegan), Сесиль Де Франс (Marie LeLay), Тьерри Новик (Didier), Синди Майо Дэвис (Island Hotel Clerk), Лиза Гриффитс (Stall Owner), Джессика Гриффитс (Island Girl), Фергюсон Рейд (Rescuer), Дерек Сакакура (Rescuer), Джей Мор (Billy), Ричард Кайнд (Christos), Чарли Крид-Майлз (Photographer), Фрэнки МакЛарен (Marcus / Jason)
Описание: Три параллельные и вскоре пересекающиеся истории о людях, познавших смерть. Французская журналистка, пережившая цунами в 2004 году, и наркоманка, потерявшая в автокатастрофе одного из десятилетних сыновей-близнецов, обращаются к умеющему разговаривать с мертвыми человеку в поисках ответов и утешения.
Раздача: Изображение

Рейтинг
kinopoisk.ru: 6.39 (1 889)
imdb.com: 6.80 (22 003)
MPAA: PG-13 - Детям до 13 лет просмотр не желателен
Качество: BDRip 720p R5
Формат: MKV
Видео: AVC, 6470 kb/s, 1280x534
Аудио: Russian: AC3, 384 kb/s (6 ch) / English: AC3, 640 kb/s (6 ch)
Субтитры: Russian [Full, Forced], English [Full]
Размер: 6.89 GB
Скачать: сэмпл

NFO
H:\Potustoronnee.2011.P.BDRip.720p.mkv
General
Complete name : H:\Potustoronnee.2011.P.BDRip.720p.mkv
Format : Matroska
File size : 6.89 GiB
Duration : 2h 9mn
Overall bit rate : 7 646 Kbps
Movie name : Hereafter.2010.720p.BluRay.x264-HiDt
Encoded date : UTC 2011-05-25 13:28:00
Writing application : mkvmerge v3.4.0 ('Rapunzel') сборка от May 15 2010 09:38:20
Writing library : libebml v0.8.0 + libmatroska v0.9.0
Video #1
ID : 1
Format : AVC
Format/Info : Advanced Video Codec
Format profile : High@L4.1
Format settings, CABAC : Yes
Format settings, ReFrames : 12 frames
Muxing mode : Container profile=Unknown@4.1
Codec ID : V_MPEG4/ISO/AVC
Duration : 2h 8mn
Bit rate : 6 470 Kbps
Nominal bit rate : 6 623 Kbps
Width : 1 280 pixels
Height : 534 pixels
Display aspect ratio : 2.35:1
Frame rate : 23.976 fps
Resolution : 24 bits
Colorimetry : 4:2:0
Scan type : Progressive
Bits/(Pixel*Frame) : 0.395
Stream size : 5.83 GiB (85%)
Title : x264
Writing library : x264 core 114 r1913 5fd3dce
Encoding settings : cabac=1 / ref=12 / deblock=1:-3:-3 / analyse=0x3:0x113 / me=tesa / subme=10 / psy=1 / psy_rd=0.95:0.00 / mixed_ref=1 / me_range=32 / chroma_me=1 / trellis=2 / 8x8dct=1 / cqm=0 / deadzone=21,11 / fast_pskip=0 / chroma_qp_offset=-2 / threads=12 / sliced_threads=0 / nr=0 / decimate=1 / interlaced=0 / constrained_intra=0 / bframes=6 / b_pyramid=2 / b_adapt=2 / b_bias=0 / direct=3 / weightb=1 / open_gop=0 / weightp=2 / keyint=250 / keyint_min=23 / scenecut=40 / intra_refresh=0 / rc=2pass / mbtree=0 / bitrate=6623 / ratetol=1.0 / qcomp=0.60 / qpmin=0 / qpmax=69 / qpstep=4 / cplxblur=20.0 / qblur=0.5 / ip_ratio=1.40 / pb_ratio=1.30 / aq=1:0.80
Language : English
Audio #2
ID : 2
Format : AC-3
Format/Info : Audio Coding 3
Codec ID : A_AC3
Duration : 2h 9mn
Bit rate mode : Constant
Bit rate : 384 Kbps
Channel(s) : 6 channels
Channel positions : Front: L C R, Surround: L R, LFE
Sampling rate : 48.0 KHz
Stream size : 354 MiB (5%)
Title : Russian DD 5.1 384 kbs
Language : Russian
Audio #3
ID : 3
Format : AC-3
Format/Info : Audio Coding 3
Codec ID : A_AC3
Duration : 2h 9mn
Bit rate mode : Constant
Bit rate : 640 Kbps
Channel(s) : 6 channels
Channel positions : Front: L C R, Surround: L R, LFE
Sampling rate : 48.0 KHz
Stream size : 591 MiB (8%)
Title : English DD 5.1 640 kbs
Language : English
Text #4
ID : 4
Format : UTF-8
Codec ID : S_TEXT/UTF8
Codec ID/Info : UTF-8 Plain Text
Title : Russian Forced
Language : Russian
Text #5
ID : 5
Format : UTF-8
Codec ID : S_TEXT/UTF8
Codec ID/Info : UTF-8 Plain Text
Title : Russian Full
Language : Russian
Text #6
ID : 6
Format : UTF-8
Codec ID : S_TEXT/UTF8
Codec ID/Info : UTF-8 Plain Text
Title : English full
Language : English
Свернуть
"Скриншоты"
Изображение

Изображение

Изображение

Изображение
Свернуть
_________________
Изображение
Не в сети
Профиль  
Начать новую темуОтветить на тему  [ 1 сообщение ] 
Вы не можете начинать темы
Вы не можете отвечать на сообщения
Вы не можете редактировать свои сообщения
Вы не можете удалять свои сообщения