Правила форума

Здесь находятся раздачи, на которых не было полного источника (сида) более месяца.
Вы можете вернуть релиз в соответствующий раздел, для этого напишите нам в специальной теме и встаньте на раздачу.
Новые релизы, повторяющие релизы в архиве, повторами не считаются.
Начать новую темуОтветить на тему  [ Сообщений: 3 ] 
Сообщения
 Добавлено: 2012-10-13 13:27
Top-releaser
Аватара пользователя
Стаж: 8 лет 9 месяцев
Сообщений: 479
Спасибок: 20189
Лайков: 16
Изображение

Изображение

Abraham Lincoln: Vampire Hunter


«Президент днём. Охотник ночью»

Год выпуска: 2012
Страна: Изображение США; Abraham Productions, Bazelevs Production, Tim Burton Productions
Жанр: Ужасы, фэнтези, боевик, триллер
Продолжительность: 01:45:00
Перевод: Профессиональный (дублированный) [Лицензия], Украинский, Оригинал
Субтитры: Russian [Forced, Full], Ukrainian [Forced, Full] English

Режиссёр: Тимур Бекмамбетов

В ролях: Бенджамин Уокер, Доминик Купер, Энтони Маки, Мэри Элизабет Уинстэд, Руфус Сьюэлл, МартонЧокаш, Джимми Симпсон, Джозеф Моул, Робин МакЛиви, Эрин Уоссон

Описание: Сюжет фильма раскрывает тайную жизнь Величайшего Президента Америки Авраама Линкольна — любящего мужа и отца днем и беспощадного убийцу вампиров ночью. Армия кровопийц, которым он бросил вызов, растет с каждым днем. Сможет ли президент великой страны противостоять полчищам вампиров и спасти свою семью и народ от неминуемой гибели?..


Качество: BDRip 1080p
Формат: MKV

Видео: AVC at 11,1 Мбит/сек, 1920 x 800 (2.400) at 23.976 fps


Аудио 1: DTS at 755 Кбит/сек, 6 канала(ов), 48,0 КГц [Дубляж]
Аудио 2: DTS at 1510 Кбит/сек, 6 канала(ов), 48,0 КГц [Оригинал]
Аудио 3: AC3 Dolby Digital, 448 Кбит/сек, 6 канала(ов), 48,0 КГц [Украинский]
Аудио 4: AC3 Dolby Digital, 224 Кбит/сек, 2 канала(ов), 48,0 КГц [Commentary]
Раздача: Изображение

Изображение

Изображение
MediaInfo

Общее
Уникальный идентификатор : 243266122657830523512215411851656264519 (0xB70359DBABE0379BB370337291417B47)
Полное имя : C:\Users\Домашний\Desktop\Prezident.Linkoln.Ohotnik.na.vampirov.2012.BDRip.1080p[nntt].mkv
Формат : Matroska
Размер файла : 10,5 Гбайт
Продолжительность : 1 ч. 45 м.
Общий поток : 14,3 Мбит/сек
Дата кодирования : UTC 2012-10-13 08:01:47
Программа кодирования : mkvmerge v5.8.0 ('No Sleep / Pillow') built on Sep 2 2012 15:37:04
Библиотека кодирования : libebml v1.2.3 + libmatroska v1.3.0

Видео
Идентификатор : 1
Формат : AVC
Формат/Информация : Advanced Video Codec
Профиль формата : High@L4.1
Параметр CABAC формата : Да
Параметр ReFrames формата : 3 кадры
Параметры GOP формата : M=4, N=32
Режим смешивания : Header stripping
Идентификатор кодека : V_MPEG4/ISO/AVC
Продолжительность : 1 ч. 45 м.
Битрейт : 11,1 Мбит/сек
Номинальный битрейт : 12,0 Мбит/сек
Ширина : 1920 пикс.
Высота : 800 пикс.
Соотношение сторон : 2,40:1
Частота кадров : 23,976 кадр/сек
Цветовое пространство : YUV
Подвыборка цветности : 4:2:0
Битовая глубина : 8 бит
Тип развёртки : Прогрессивная
Бит/(Пиксели*Кадры) : 0.301
Размер потока : 8,14 Гбайт (78%)
Библиотека кодирования : x264 core 125 r2200 999b753
Настройки программы : cabac=1 / ref=2 / deblock=1:-3:-3 / analyse=0x3:0x113 / me=hex / subme=4 / psy=1 / psy_rd=1.00:0.15 / mixed_ref=0 / me_range=16 / chroma_me=1 / trellis=1 / 8x8dct=1 / cqm=0 / deadzone=21,11 / fast_pskip=1 / chroma_qp_offset=-1 / threads=12 / lookahead_threads=2 / sliced_threads=0 / nr=0 / decimate=1 / interlaced=0 / bluray_compat=0 / constrained_intra=0 / bframes=3 / b_pyramid=1 / b_adapt=1 / b_bias=0 / direct=1 / weightb=1 / open_gop=0 / weightp=1 / keyint=240 / keyint_min=23 / scenecut=40 / intra_refresh=0 / rc_lookahead=20 / rc=abr / mbtree=1 / bitrate=11989 / ratetol=1.0 / qcomp=0.60 / qpmin=0 / qpmax=69 / qpstep=4 / ip_ratio=1.40 / aq=1:1.00
Язык : English

Аудио #1
Идентификатор : 2
Формат : DTS
Формат/Информация : Digital Theater Systems
Режим смешивания : Header stripping
Идентификатор кодека : A_DTS
Продолжительность : 1 ч. 45 м.
Вид битрейта : Постоянный
Битрейт : 755 Кбит/сек
Канал(ы) : 6 канала(ов)
Расположение каналов : Front: L C R, Side: L R, LFE
Частота : 48,0 КГц
Битовая глубина : 24 бит
Метод сжатия : С потерями
Размер потока : 567 Мбайт (5%)
Заголовок : DTS 5.1 @ 768 kbps - Dub, BD EUR
Язык : Russian

Аудио #2
Идентификатор : 3
Формат : DTS
Формат/Информация : Digital Theater Systems
Режим смешивания : Header stripping
Идентификатор кодека : A_DTS
Продолжительность : 1 ч. 45 м.
Вид битрейта : Постоянный
Битрейт : 1510 Кбит/сек
Канал(ы) : 6 канала(ов)
Расположение каналов : Front: L C R, Side: L R, LFE
Частота : 48,0 КГц
Битовая глубина : 24 бит
Метод сжатия : С потерями
Размер потока : 1,11 Гбайт (11%)
Заголовок : DTS 5.1 @ 1536 kbps
Язык : English

Аудио #3
Идентификатор : 4
Формат : AC-3
Формат/Информация : Audio Coding 3
Расширение режима : CM (complete main)
Режим смешивания : Header stripping
Идентификатор кодека : A_AC3
Продолжительность : 1 ч. 45 м.
Вид битрейта : Постоянный
Битрейт : 448 Кбит/сек
Канал(ы) : 6 канала(ов)
Расположение каналов : Front: L C R, Side: L R, LFE
Частота : 48,0 КГц
Битовая глубина : 16 бит
Метод сжатия : С потерями
Размер потока : 336 Мбайт (3%)
Заголовок : Dub AC3 5.1 448 kbps
Язык : Ukrainian

Аудио #4
Идентификатор : 5
Формат : AC-3
Формат/Информация : Audio Coding 3
Расширение режима : CM (complete main)
Режим смешивания : Header stripping
Идентификатор кодека : A_AC3
Продолжительность : 1 ч. 45 м.
Вид битрейта : Постоянный
Битрейт : 224 Кбит/сек
Канал(ы) : 2 канала(ов)
Расположение каналов : Front: L R
Частота : 48,0 КГц
Битовая глубина : 16 бит
Метод сжатия : С потерями
Размер потока : 168 Мбайт (2%)
Заголовок : Commentary
Язык : English

Текст #1
Идентификатор : 6
Формат : UTF-8
Идентификатор кодека : S_TEXT/UTF8
Идентификатор кодека/Информация : UTF-8 Plain Text
Заголовок : Forced
Язык : Russian

Текст #2
Идентификатор : 7
Формат : UTF-8
Идентификатор кодека : S_TEXT/UTF8
Идентификатор кодека/Информация : UTF-8 Plain Text
Заголовок : Full
Язык : Russian

Текст #3
Идентификатор : 8
Формат : UTF-8
Идентификатор кодека : S_TEXT/UTF8
Идентификатор кодека/Информация : UTF-8 Plain Text
Заголовок : Forced
Язык : Ukrainian

Текст #4
Идентификатор : 9
Формат : UTF-8
Идентификатор кодека : S_TEXT/UTF8
Идентификатор кодека/Информация : UTF-8 Plain Text
Заголовок : Full
Язык : Ukrainian

Текст #5
Идентификатор : 10
Формат : UTF-8
Идентификатор кодека : S_TEXT/UTF8
Идентификатор кодека/Информация : UTF-8 Plain Text
Заголовок : Full
Язык : English

Меню
00:00:00.000 : en:00:00:00.000
00:03:48.478 : en:00:03:48.478
00:06:52.578 : en:00:06:52.578
00:11:06.457 : en:00:11:06.457
00:15:10.534 : en:00:15:10.534
00:20:07.789 : en:00:20:07.789
00:26:46.354 : en:00:26:46.354
00:29:22.135 : en:00:29:22.135
00:34:13.009 : en:00:34:13.009
00:39:04.884 : en:00:39:04.884
00:42:42.810 : en:00:42:42.810
00:47:25.467 : en:00:47:25.467
00:52:50.917 : en:00:52:50.917
01:00:39.302 : en:01:00:39.302
01:05:16.621 : en:01:05:16.621
01:10:33.562 : en:01:10:33.562
01:13:21.939 : en:01:13:21.939
01:16:41.555 : en:01:16:41.555
01:18:46.972 : en:01:18:46.972
01:22:41.373 : en:01:22:41.373
01:25:28.123 : en:01:25:28.123
01:29:00.835 : en:01:29:00.835
01:32:23.496 : en:01:32:23.496
01:37:55.119 : en:01:37:55.119


Свернуть

Знаете ли вы, что...

• В основу фильма легла одноимённая книга Сета Грэма-Смита.

• Том Харди, утвержденный на роль Линкольна, был вынужден отказаться из-за несогласованности в расписании съемок с фильмом «Темный рыцарь: Возрождение легенды» (2012). После него Эрик Бана, Тимоти Олифант, Эдриан Броуди, Джош Лукас, Джеймс Д`Арси и Оливер Джексон-Коэн рассматривались на эту роль, но в итоге она досталась Бенджамину Уокеру.

• Хоакин Феникс был первым претендентом на роль Генри Стерджесса, но отказался.

• Робин МакЛиви должна была играть жену Линкольна — Мэри Тодд, но в итоге была определена на роль его матери Нэнси.

• Велись переговоры с Трентом Резнором об эпизодической роли в фильме, но новость просочилась, прежде чем он принял окончательное решение, и Резнор отказался от участия в проекте, так как был потерян элемент неожиданности его появления в нем.

• Сэт Грэм-Смит написавший и сценарий, и сам роман, по которому снят фильм, рассказал «Time Magazine», что (в отличие от предположений большинства) человек в баре в конце фильма (который набирает сообщение, прежде чем [как мы предполагаем] Генри нанимает его, чтобы быть следующим охотником на вампиров) не Джордж Буш, Барак Обама, или какой-либо другой президент. Грэм-Смит сказал: «В этом человеке не подразумевается кто-то особенный, это было сделано для того, чтобы разобраться с предшествующей сценой Генри и Эйба». Он так же сказал, что этого человека (печатающего сообщение) сыграл сам.

• На балу, где Линкольн танцует с Марией, играет музыка «Estudiantina waltz», так же называется «Band of Students Waltz». Эта музыкальная аранжировка написана в 1883 году Эмилем Вальдтейфелем и впоследствии стала его «Opus 191, No. 4». Сама же мелодия была написана ранее в 1881 году композитором Полем Локомом, на стихи Ж. де Лузиньян Лау.

• Несколько раз на протяжении фильма в крупных планах Авраама Линкольна заметно, что он носит контактные линзы.

• В момент, когда Уилл заряжает револьвер в поезде, он вкладывает пули в барабан. Револьверы времен Гражданской войны заряжались с дула, и им требовался ударный капсюль для воспламенения порохового заряда. Пистолет же в кадре явно имеет отделения под патроны, а не систему с капсюлем.

• На флаге, который видно во время Геттисбергской речи, 50 звезд. А должно быть лишь 35.

• Когда Линкольн обнаруживает, что его часы на полу в комнате сына, показывают крупным планом Линкольна открывающего часы, чтобы прочесть надпись. Далее Линкольна показывают в другом ракурсе, часы все еще закрыты.

• После того, как президент Линкольн подзывает своего сына Вилли для поцелуя, а затем его друг Уилл делает то же самое, в момент, когда Вилли уходит из офиса, очки Уилла сначала одеты на нем, затем исчезают и появляются вновь.

• Когда Авраам Линкольн произносит свою последнюю речь, ветер сдувает со стола его шляпу. После своего выступления он идет, чтобы подобрать шляпу, и делает это, даже не наклонившись, несмотря на то, что шляпа по идее должна была лежать на земле.

• Во время сцены на плантации есть несколько кадров крупным планом, которые показывают, как Авраам и Генри наблюдают за танцующими через окно. И в отражении стекла четко видно как рабов, так и вампиров. Это невозможно, поскольку ранее Генри утверждал, что вампиров не видно в отражении.

• В конце первого дня битвы при Геттисберге, Линкольн понял, что Союз на грани поражения. За обедом к нему приходит идея напасть на вампиров с серебряным оружием. Он и его помощники собирают все серебро в Соединенных Штатах и переплавляют его в пули, ядра, штыки, сабли и т. д., упаковывают их. Далее собирают армию освобожденных рабов, в то время как Линкольн и его друзья захватывают поезд. Оружие поставляется на поле боя точно в срок и спасает положение. Реальная битва при Геттисберге продолжалась три дня, с 1-го по 3-е июля 1863 года, а это слишком мало времени, чтобы исполнить весь этот план.


Свернуть

Скриншоты

Изображение
Изображение
Изображение
Изображение
Изображение
Свернуть
_________________
Изображение
Изображение
Не в сети
Профиль  
 Добавлено: 2012-10-13 14:08 (спустя 41 минута)
Руководитель релиз-группы
Аватара пользователя
Стаж: 7 лет 5 месяцев
Возраст: 31
Сообщений: 3406
Спасибок: 46729
Лайков: 5
сцен-рип
будет поглощен при появлении лучшего
Не в сети
Профиль  
 Добавлено: 2012-10-14 20:44 (спустя 1 день 6 часов)
Руководитель релиз-группы
Аватара пользователя
Стаж: 7 лет 5 месяцев
Возраст: 31
Сообщений: 3406
Спасибок: 46729
Лайков: 5
viewtopic.php?f=1743&t=484251
Не в сети
Профиль  
Начать новую темуОтветить на тему  [ Сообщений: 3 ] 
Вы не можете начинать темы
Вы не можете отвечать на сообщения
Вы не можете редактировать свои сообщения
Вы не можете удалять свои сообщения