Правила форума

Здесь находятся раздачи, на которых не было полного источника (сида) более месяца.
Вы можете вернуть релиз в соответствующий раздел, для этого напишите нам в специальной теме и встаньте на раздачу.
Новые релизы, повторяющие релизы в архиве, повторами не считаются.
Начать новую темуОтветить на тему  [ 1 сообщение ] 
Сообщения
 Добавлено: 2012-02-25 12:23
Аватара пользователя
Стаж: 5 лет 6 месяцев
Возраст: 30
Сообщений: 353
Спасибок: 7455
Приключения Филибера / Les aventures de Philibert, capitaine puceau

Изображение


Год выпуска: 2011
Страна: Франция (Angoa-Agicoa, Canal+ [fr], Ciné Cinémas, Gaumont, M6, M6 Films, Mandarin Films, Procirep)
Жанр: комедия, приключения
Продолжительность: 01:42:01
Перевод: Профессиональный (многоголосый закадровый)
Субтитры: украинские

Режиссёр: Сильвен Фюзе / Sylvain Fusee
Сценарист: Карин Анжели, Жан-Франсуа Алин
Продюсер: Николас Альтмайер, Марк Дженни
Оператор: Режи Блондо
Композитор: Jean-Louis Bianchina
В ролях: Жереми Ренье, Александр Астье, Ману Пайе, Элоди Наварр, Эрик Савен, Людовик Бертийо, Гаспар Пруст

Описание: В 1550 году молодой фермер Филибер имеет только две цели в жизни: сохранить семейную традицию выращивания артишоков и найти свою суженую, чтобы жениться на ней. Внезапно на смертном одре его отец сообщает ему, что на самом деле он сын графа, убитого двадцать лет назад таинственным дворянином с родинкой в виде розы на шее. Теперь он должен отказаться от старой жизни и отомстить за смерть своего настоящего отца.
Доп.информация: Смотрите на DVD
Мировая премьера: 6 апреля 2011,

Изображение Изображение Изображение

Качество: DVD5 R5
Формат: DVD Video
Видео кодек: MPEG2
Аудио кодек: AC3 (Dolby Digital)
Видео: PAL 4:3 (720x576(0.434)) MPEG Video, 25,000 кадр/сек, 4499 Кбит/сек
Аудио #1: Russian (Dolby AC3, 2 ch) 224 Кбит/сек, 48,0 КГц [Профессиональный (многоголосый закадровый)]
Субтитры: украинские

"DVDInfo"
Title:
Size: 3.89 Gb ( 4 080 188 KBytes ) - DVD-5
Enabled regions: 1, 2, 3, 4, 5, 6, 7, 8

VTS_01 :
Play Length: 01:41:45+00:00:16
Video: PAL 4:3 (704x576) VBR
Audio:
Russian (Dolby AC3, 2 ch)
Subtitles:
Ukrainian

VTS_02 :
Play Length: 00:11:36
Video: PAL 16:9 (720x576) VBR, Auto Letterboxed
Audio:
Russian (Dolby AC3, 2 ch)

Menu Video:
PAL 16:9 (720x576) VBR
Auto Letterboxed
Menu Subtitles:
Not specified
Menu English Language Unit :
Root Menu
Свернуть

"MediaInfo"
Общее
Полное имя : G:\Новинки 2012\Prikljuchenija.Filibera.2011.DVD5\VIDEO_TS\VTS_01_1.VOB
Формат : MPEG-PS
Размер файла : 1000 Мбайт
Продолжительность : 29 м.
Режим общего битрейта : Переменный
Общий поток : 4819 Кбит/сек

Видео
Идентификатор : 224 (0xE0)
Формат : MPEG Video
Версия формата : Version 2
Профиль формата : Main@Main
Параметр BVOP формата : Да
Параметр матрицы формата : Выборочная
Параметр GOP формата : M=3, N=15
Продолжительность : 29 м.
Вид битрейта : Переменный
Битрейт : 4499 Кбит/сек
Максимальный битрейт : 5000 Кбит/сек
Ширина : 720 пикселей
Высота : 576 пикселей
Соотношение сторон : 4:3
Частота кадров : 25,000 кадров/сек
Стандарт вещания : PAL
Цветовое пространство : YUV
Субдискретизация насыщенности : 4:2:0
Битовая глубина : 8 бит
Тип развёртки : Чересстрочная
Порядок развёртки : Верхнее поле первое
Метод сжатия : С потерями
Бит/(Пиксели*Кадры) : 0.434
Размер потока : 934 Мбайт (93%)

Аудио
Идентификатор : 189 (0xBD)-128 (0x80)
Формат : AC-3
Формат/Информация : Audio Coding 3
Расширение режима : CM (complete main)
Режим смешивания : DVD-Video
Продолжительность : 29 м.
Вид битрейта : Постоянный
Битрейт : 224 Кбит/сек
Каналы : 2 канала
Расположение каналов : Front: L R
Частота : 48,0 КГц
Битовая глубина : 16 бит
Метод сжатия : С потерями
Размер потока : 46,5 Мбайт (5%)

Текст
Идентификатор : 189 (0xBD)-32 (0x20)
Формат : RLE
Формат/Информация : Run-length encoding
Режим смешивания : DVD-Video

Свернуть


Скриншоты
Скриншоты меню
Изображение
Изображение
Изображение
Свернуть
Изображение
Изображение
Изображение
Изображение
Изображение
Изображение
Изображение
Изображение
Свернуть


ИзображениеИзображение
Не в сети
Профиль  
Начать новую темуОтветить на тему  [ 1 сообщение ] 
Вы не можете начинать темы
Вы не можете отвечать на сообщения
Вы не можете редактировать свои сообщения
Вы не можете удалять свои сообщения