Правила форума

Здесь находятся раздачи, на которых не было полного источника (сида) более месяца.
Вы можете вернуть релиз в соответствующий раздел, для этого напишите нам в специальной теме и встаньте на раздачу.
Новые релизы, повторяющие релизы в архиве, повторами не считаются.
Начать новую темуОтветить на тему  [ Сообщений: 4 ] 
Сообщения
 Добавлено: 2011-03-29 01:31
Аватара пользователя
Стаж: 8 лет 2 месяца
Возраст: 26
Сообщений: 245
Спасибок: 48
Приключения охотника на драконов / Adventures of a Teenage Dragonslayer

Изображение


Год выпуска: 2010
Страна: США
Слоган: «Saving the world takes the help of a few good friends.»
Жанр: фэнтези, комедия, приключения, семейный
Продолжительность: 01:32:36
Перевод: Любительский (многоголосый закадровый)
Субтитры: Русские

Режиссёр: Эндрю Лоэр
Сценарист: Джэми Нэш
Продюсер: Райл Адамсон, Гэвин Джиллетт, Полин Адамсон
Оператор: Луис М. Робинсон
Композитор: Марк Оутс
В ролях: Лиа Томпсон, Уэнди Мэлик, Эми Пьетц, Эрик Лютес, Эндрю Лоэр, Хантер Аллен, Шоун Принц, Эбигейл Виктор, Райл Адамсон, Джордан Рейнольдс
Описание: 12-летний Артур спасен волшебным троллем, потому что знает тайну победы над драконом. Любящая мама Артура не воспринимает его фантазии всерьез до тех пор пока не понимает реальную опасность. Вместе они надеются победить дракона.
Рейтинг MPAA: Рейтинг PG (Детям рекомендуется смотреть фильм с родителями)
Мировая премьера: 16 апреля 2010
Бюджет: $3 250 000
Изображение

Качество: BDRip, 1080p
Формат: MKV
Видео кодек: H264 (AVC)
Аудио кодек: AC3 (Dolby Digital)
Видео: 9455 Kb/s, 1920x1080
Аудио #1: AC3, 448 kb/s (6 ch) [Любительский (многоголосый закадровый)]
Аудио #2: AC3, 640 kb/s (6 ch) [Оригинальная звуковая дорожка]
MediaInfo
Общее
Формат : Matroska
Размер файла : 6,82 Гбайт
Продолжительность : 1 ч. 32 м.
Общий поток : 10,5 Мбит/сек
Дата кодирования : UTC 2011-03-25 07:08:26
Программа кодирования : mkvmerge v3.4.0 ('Rapunzel') сборка от May 15 2010 09:38:20
Библиотека кодирования : libebml v0.8.0 + libmatroska v0.9.0

Видео
Идентификатор : 1
Формат : AVC
Формат/Информация : Advanced Video Codec
Профиль формата : High@L4.1
Параметр CABAC формата : Да
Параметр ReFrames формата : 4 кадры
Идентификатор кодека : V_MPEG4/ISO/AVC
Продолжительность : 1 ч. 32 м.
Битрейт : 9455 Кбит/сек
Ширина : 1920 пикс.
Высота : 1080 пикс.
Соотношение сторон : 16:9
Частота кадров : 23,976 кадр/сек
Цветовое пространство : YUV
Подвыборка цветности : 4:2:0
Битовая глубина : 8 бит
Тип развёртки : Прогрессивная
Бит/(Пиксели*Кадры) : 0.190
Размер потока : 5,98 Гбайт (88%)
Библиотека кодирования : x264 core 114 r1913 5fd3dce
Настройки программы : cabac=1 / ref=4 / deblock=1:-3:-3 / analyse=0x3:0x113 / me=umh / subme=9 / psy=1 / psy_rd=1.10:0.15 / mixed_ref=1 / me_range=32 / chroma_me=1 / trellis=2 / 8x8dct=1 / cqm=2 / deadzone=21,11 / fast_pskip=0 / chroma_qp_offset=-2 / threads=12 / sliced_threads=0 / nr=0 / decimate=1 / interlaced=0 / constrained_intra=0 / bframes=6 / b_pyramid=2 / b_adapt=2 / b_bias=0 / direct=3 / weightb=1 / open_gop=0 / weightp=2 / keyint=250 / keyint_min=23 / scenecut=40 / intra_refresh=0 / rc_lookahead=60 / rc=2pass / mbtree=1 / bitrate=9455 / ratetol=2.0 / qcomp=0.70 / qpmin=1 / qpmax=63 / qpstep=4 / cplxblur=20.0 / qblur=0.5 / vbv_maxrate=40000 / vbv_bufsize=30000 / nal_hrd=none / ip_ratio=1.40 / aq=1:0.90

Аудио #1
Идентификатор : 2
Формат : AC-3
Формат/Информация : Audio Coding 3
Расширение режима : CM (complete main)
Идентификатор кодека : A_AC3
Продолжительность : 1 ч. 32 м.
Вид битрейта : Постоянный
Битрейт : 448 Кбит/сек
Канал(ы) : 6 канала(ов)
Расположение каналов : Front: L C R, Side: L R, LFE
Частота : 48,0 КГц
Битовая глубина : 16 бит
Метод сжатия : С потерями
Размер потока : 297 Мбайт (4%)
Язык : Russian

Аудио #2
Идентификатор : 3
Формат : AC-3
Формат/Информация : Audio Coding 3
Расширение режима : CM (complete main)
Идентификатор кодека : A_AC3
Продолжительность : 1 ч. 32 м.
Вид битрейта : Постоянный
Битрейт : 640 Кбит/сек
Канал(ы) : 6 канала(ов)
Расположение каналов : Front: L C R, Side: L R, LFE
Частота : 48,0 КГц
Битовая глубина : 16 бит
Метод сжатия : С потерями
Размер потока : 424 Мбайт (6%)
Язык : English

Текст
Идентификатор : 4
Формат : UTF-8
Идентификатор кодека : S_TEXT/UTF8
Идентификатор кодека/Информация : UTF-8 Plain Text
Язык : Russian
Свернуть
Изображение
Скриншоты
Изображение
Изображение
Изображение
Изображение
Изображение
Изображение
Свернуть

pелиз группы:Изображение


Последний раз редактировалось Nucleon 2011-11-22 09:56, всего редактировалось 2 раз(а).
Не в сети
Профиль  
 Добавлено: 2011-03-29 11:42 (спустя 10 часов)
Аватара пользователя
Стаж: 8 лет 10 месяцев
Сообщений: 2032
Спасибок: 53743
Лайков: 6
Субтитры: Нет
Текст
Идентификатор : 4
Формат : UTF-8
Идентификатор кодека : S_TEXT/UTF8
Идентификатор кодека/Информация : UTF-8 Plain Text
Язык : Russian
:du_ma_et:
Добавьте ещё вторую аудиодорожку в тех.характеристики.
Не в сети
Профиль  
 Добавлено: 2011-03-29 13:20 (спустя 1 час 38 минут)
Аватара пользователя
Стаж: 8 лет 2 месяца
Возраст: 26
Сообщений: 245
Спасибок: 48
я не добавил из-за того что не смог их включить. ни дорожку ни сабы. но если надо -добавлю
Посчитал не нужным обманывать народ)
_________________
На раздачах стараюсь быть почти всегда.
SpeedTest
Изображение
Свернуть
Изображение
Изображение
Не в сети
Профиль  
 Добавлено: 2011-03-29 14:50 (спустя 1 час 30 минут)
Аватара пользователя
Стаж: 8 лет 10 месяцев
Сообщений: 2032
Спасибок: 53743
Лайков: 6
Nucleon, FAQ по программным видеоплеерам.
Не в сети
Профиль  
Начать новую темуОтветить на тему  [ Сообщений: 4 ] 
Вы не можете начинать темы
Вы не можете отвечать на сообщения
Вы не можете редактировать свои сообщения
Вы не можете удалять свои сообщения