Правила форума

Здесь находятся раздачи, на которых не было полного источника (сида) более месяца.
Вы можете вернуть релиз в соответствующий раздел, для этого напишите нам в специальной теме и встаньте на раздачу.
Новые релизы, повторяющие релизы в архиве, повторами не считаются.
Начать новую темуОтветить на тему  [ Сообщений: 4 ] 
Сообщения
 Добавлено: 2012-06-04 15:35
Модератор
Аватара пользователя
Стаж: 6 лет 10 месяцев
Возраст: 33
Сообщений: 5908
Спасибок: 61259
Лайков: 3540
Изображение

Проект X: Дорвались / Project X


Год выпуска: 2012
Страна: США
Слоган: «Вечеринка, о которой ты даже не мечтал»
Жанр: комедия
Продолжительность: 01:27:53
Перевод: Профессиональный (полное дублирование)
Режиссер: Нима Нуризаде
Сценарий: Майкл Бэколл, Мэтт Дрэйк
Продюсер: Тодд Филлипс, Скотт Будник, Марти П. Юинг
Оператор: Кен Сенг
В ролях: Томас Манн, Оливер Купер, Джонатан Даниэль Браун, Дакс Флэйм, Кирби Блисс Блэнтон, Брэйди Эндер, Ник Нервис, Алексис Кнапп, Майлз Теллер, Питер , Маккензи
Бюджет: $12 000 000
Сборы в США: $54 731 865
Сборы в России: $3 351 273
Сборы в мире: $94 731 865
Описание: Сюжет вращается вокруг троих одноклассников, решивших устроить крутую вечеринку и прославиться на всю округу - правда, удержать события под контролем у них не получилось.
Изображение
MPAA: Изображение
Мировая премьера: 1 марта 2012
Релиз на DVD: 14 июня 2012, «CP Дистрибуция»
Релиз на Blu-ray: 21 июня 2012, «CP Дистрибуция»
Релиз группы: Изображение
Раздача группы: Изображение
Качество: BDRip, 720p
Формат: Matroska
Видео: AVC; 1280x720 (16:9); 6568 Kbps; 23,976 fps; 0,297 bit/pixel
Аудио №1: Russian; AC3; 448 Kbps; CBR; 6 ch
Аудио №2: English; DTS; 1509 Kbps; CBR; 6 ch; 24 bit

Субтитры: English

MediaInfo
Общее

Полное имя : Proekt.X.Dorvalis.2012.D.BDRip.720p..ELEKTRI4KA.mkv
Формат : Matroska
Версия формата : Version 2
Размер файла : 5,34 Гбайт
Продолжительность : 1 ч. 27 м.
Общий поток : 8700 Кбит/сек
Название фильма : Proekt.X.Dorvalis.2012.D.BDRip.720p..ELEKTRI4KA
Дата кодирования : UTC 2012-06-04 02:12:20
Программа кодирования : mkvmerge v5.5.0 ('Healer') built on Apr 6 2012 21:43:24
Библиотека кодирования : libebml v1.2.3 + libmatroska v1.3.0

Видео
Идентификатор : 1
Формат : AVC
Формат/Информация : Advanced Video Codec
Профиль формата : High@L4.1
Параметр CABAC формата : Да
Параметр ReFrames формата : 9 кадров
Идентификатор кодека : V_MPEG4/ISO/AVC
Продолжительность : 1 ч. 27 м.
Битрейт : 6730 Кбит/сек
Ширина : 1280 пикселей
Высота : 720 пикселей
Соотношение сторон : 16:9
Частота кадров : 23,976 кадра/сек
Цветовое пространство : YUV
Субдискретизация насыщенности : 4:2:0
Битовая глубина : 8 бит
Тип развёртки : Прогрессивная
Бит/(Пиксели*Кадры) : 0.305
Размер потока : 4,03 Гбайт (76%)
Заголовок : Proekt.X.Dorvalis.2012.D.BDRip.720p..ELEKTRI4KA
Библиотека кодирования : x264 core 124 r2197 69a0443
Настройки программы : cabac=1 / ref=9 / deblock=1:-3:-3 / analyse=0x3:0x113 / me=umh / subme=11 / psy=1 / psy_rd=1.00:0.00 / mixed_ref=1 / me_range=32 / chroma_me=1 / trellis=2 / 8x8dct=1 / cqm=0 / deadzone=21,11 / fast_pskip=0 / chroma_qp_offset=-2 / threads=6 / sliced_threads=0 / nr=0 / decimate=1 / interlaced=0 / bluray_compat=0 / constrained_intra=0 / bframes=8 / b_pyramid=2 / b_adapt=2 / b_bias=0 / direct=3 / weightb=1 / open_gop=0 / weightp=2 / keyint=250 / keyint_min=24 / scenecut=40 / intra_refresh=0 / rc_lookahead=40 / rc=2pass / mbtree=0 / bitrate=6730 / ratetol=1.0 / qcomp=0.60 / qpmin=0 / qpmax=69 / qpstep=4 / cplxblur=20.0 / qblur=0.5 / vbv_maxrate=50000 / vbv_bufsize=50000 / nal_hrd=none / ip_ratio=1.40 / pb_ratio=1.30 / aq=1:1.00
Язык : English
Default : Да
Forced : Нет

Аудио #1
Идентификатор : 2
Формат : AC-3
Формат/Информация : Audio Coding 3
Расширение режима : CM (complete main)
Параметр Endianness формата : Big
Идентификатор кодека : A_AC3
Продолжительность : 1 ч. 27 м.
Вид битрейта : Постоянный
Битрейт : 448 Кбит/сек
Каналы : 6 каналов
Расположение каналов : Front: L C R, Side: L R, LFE
Частота : 48,0 КГц
Битовая глубина : 16 бит
Метод сжатия : С потерями
Размер потока : 282 Мбайт (5%)
Язык : Russian
Default : Да
Forced : Нет

Аудио #2
Идентификатор : 3
Формат : DTS
Формат/Информация : Digital Theater Systems
Идентификатор кодека : A_DTS
Продолжительность : 1 ч. 27 м.
Вид битрейта : Постоянный
Битрейт : 1510 Кбит/сек
Каналы : 6 каналов
Расположение каналов : Front: L C R, Side: L R, LFE
Частота : 48,0 КГц
Битовая глубина : 24 бит
Метод сжатия : С потерями
Размер потока : 949 Мбайт (17%)
Язык : English
Default : Нет
Forced : Нет

Текст
Идентификатор : 4
Формат : PGS
Режим смешивания : zlib
Идентификатор кодека : S_HDMV/PGS
Идентификатор кодека/Информация : The same subtitle format used on BDs/HD-DVDs
Язык : English
Default : Нет
Forced : Нет

Меню
00:00:00.000 : en:00:00:00.000
00:10:34.425 : en:00:10:34.425
00:19:53.776 : en:00:19:53.776
00:30:14.062 : en:00:30:14.062
00:40:10.950 : en:00:40:10.950
00:51:16.240 : en:00:51:16.240
01:00:56.403 : en:01:00:56.403
01:11:22.320 : en:01:11:22.320
01:19:29.765 : en:01:19:29.765

Свернуть

Скриншоты

Изображение
Изображение
Изображение
Изображение
Свернуть
_________________
ИзображениеИзображение Изображение
Изображение
 tany1984 и di-ys1 нравится это.
Не в сети
Профиль  
 Добавлено: 2012-06-04 20:55 (спустя 5 часов)
Аватара пользователя
Стаж: 8 лет 3 месяца
Возраст: 43
Сообщений: 3290
Спасибок: 21012
Лайков: 3
Это пичально, но звук подкачал. В двух местах хрипит. В районе 40й минуты хрип слышен в течении 5ти минут :(
статус временный :par_don:
_________________
Изображение
Не в сети
Профиль  
 Добавлено: 2012-06-04 21:18 (спустя 23 минуты)
Модератор
Аватара пользователя
Стаж: 6 лет 10 месяцев
Возраст: 33
Сообщений: 5908
Спасибок: 61259
Лайков: 3540

Иванишко:

Это пичально, но звук подкачал. В двух местах хрипит. В районе 40й минуты хрип слышен в течении 5ти минут :(
статус временный :par_don:
Ага, 35-40 минута, звук не 5.1
_________________
ИзображениеИзображение Изображение
Изображение
Не в сети
Профиль  
 Добавлено: 2012-12-24 21:31 (спустя 6 месяцев)
Руководитель релиз-группы
Аватара пользователя
Стаж: 7 лет 4 месяца
Возраст: 31
Сообщений: 3407
Спасибок: 46729
Лайков: 5
viewtopic.php?f=1743&t=493433
Не в сети
Профиль  
Начать новую темуОтветить на тему  [ Сообщений: 4 ] 
Вы не можете начинать темы
Вы не можете отвечать на сообщения
Вы не можете редактировать свои сообщения
Вы не можете удалять свои сообщения