Правила форума

Здесь находятся раздачи, на которых не было полного источника (сида) более месяца.
Вы можете вернуть релиз в соответствующий раздел, для этого напишите нам в специальной теме и встаньте на раздачу.
Новые релизы, повторяющие релизы в архиве, повторами не считаются.
Начать новую темуОтветить на тему  [ Сообщений: 6 ] 
Сообщения
 Добавлено: 2012-06-04 21:01
Модератор
Аватара пользователя
Стаж: 8 лет 7 месяцев
Сообщений: 4965
Спасибок: 110254
Лайков: 18
Изображение

Проект X: Дорвались / Project X


Год выпуска: 2012
Страна: США
Слоган: «Вечеринка, о которой ты даже не мечтал»

Жанр: комедия
Продолжительность: 01:27:52
Перевод: Профессиональный (полное дублирование)
Субтитры: English

Режиссер: Нима Нуризаде
Сценарий: Майкл Бэколл, Мэтт Дрэйк
Продюсер: Тодд Филлипс, Скотт Будник, Марти П. Юинг, Алекс Хейнеман, Стив Ричардс
Оператор: Кен Сенг

В ролях: Томас Манн, Оливер Купер, Джонатан Даниэль Браун, Дакс Флэйм, Кирби Блисс Блэнтон, Брэйди Эндер, Ник Нервис, Алексис Кнапп, Майлз Теллер, Питер Маккензи, Кэйтлин Дюлэйни, Роб Эворс
Дублёры: Александр Гаврилин, Диомид Виноградов, Вероника Саркисова, Алексей Рязанцев
Бюджет: $12 000 000
Сборы в США: $54 731 865
Сборы в России: $3 351 273
Сборы в мире: $94 731 865

Мировая премьера: 1 марта 2012
Релиз на DVD: 14 июня 2012, «CP Дистрибуция»
Релиз на Blu-ray: 21 июня 2012, «CP Дистрибуция»
Описание: Сюжет вращается вокруг троих одноклассников, решивших устроить крутую вечеринку и прославиться на всю округу - правда, удержать события под контролем у них не получилось.
Изображение 6.6/10 (17,885 users) Изображение 7.414 (6 792)
Изображение
MPAA: Изображение - Лицам до 17 лет обязательно присутствие взрослого
"NFO"
Формат : Matroska
Версия формата : Version 2
Размер файла : 9,31 Гбайт
Продолжительность : 1 ч. 27 м.
Общий поток : 15,2 Мбит/сек
Название фильма : Proekt.X.Dorvalis.2012.BDRip.1080p,x264-BufeR
Дата кодирования : UTC 2012-06-04 10:56:19
Программа кодирования : mkvmerge v5.5.0 ('Healer') built on Apr 6 2012 21:43:24
Библиотека кодирования : libebml v1.2.3 + libmatroska v1.3.0

Видео
Идентификатор : 1
Формат : AVC
Формат/Информация : Advanced Video Codec
Профиль формата : High@L4.1
Параметр CABAC формата : Да
Параметр ReFrames формата : 4 кадра
Идентификатор кодека : V_MPEG4/ISO/AVC
Продолжительность : 1 ч. 27 м.
Битрейт : 13,2 Мбит/сек
Ширина : 1920 пикселей
Высота : 1080 пикселей
Соотношение сторон : 16:9
Частота кадров : 23,976 кадра/сек
Цветовое пространство : YUV
Субдискретизация насыщенности : 4:2:0
Битовая глубина : 8 бит
Тип развёртки : Прогрессивная
Бит/(Пиксели*Кадры) : 0.266
Размер потока : 7,93 Гбайт (85%)
Заголовок : Proekt.X.Dorvalis.2012.BDRip.1080p,x264-BufeR
Библиотека кодирования : x264 core 124 r2197 69a0443
Настройки программы : cabac=1 / ref=4 / deblock=1:-3:-3 / analyse=0x3:0x113 / me=umh / subme=11 / psy=1 / psy_rd=1.00:0.00 / mixed_ref=1 / me_range=32 / chroma_me=1 / trellis=2 / 8x8dct=1 / cqm=0 / deadzone=21,11 / fast_pskip=0 / chroma_qp_offset=-2 / threads=6 / sliced_threads=0 / nr=0 / decimate=1 / interlaced=0 / bluray_compat=0 / constrained_intra=0 / bframes=7 / b_pyramid=2 / b_adapt=2 / b_bias=0 / direct=3 / weightb=1 / open_gop=0 / weightp=2 / keyint=250 / keyint_min=24 / scenecut=40 / intra_refresh=0 / rc_lookahead=40 / rc=2pass / mbtree=0 / bitrate=13205 / ratetol=1.0 / qcomp=0.60 / qpmin=0 / qpmax=69 / qpstep=4 / cplxblur=20.0 / qblur=0.5 / vbv_maxrate=50000 / vbv_bufsize=50000 / nal_hrd=none / ip_ratio=1.40 / pb_ratio=1.30 / aq=1:1.00
Язык : English
Default : Да
Forced : Нет

Аудио #1
Идентификатор : 2
Формат : AC-3
Формат/Информация : Audio Coding 3
Расширение режима : CM (complete main)
Параметр Endianness формата : Big
Идентификатор кодека : A_AC3
Продолжительность : 1 ч. 27 м.
Вид битрейта : Постоянный
Битрейт : 448 Кбит/сек
Каналы : 6 каналов
Расположение каналов : Front: L C R, Side: L R, LFE
Частота : 48,0 КГц
Битовая глубина : 16 бит
Метод сжатия : С потерями
Размер потока : 282 Мбайт (3%)
Язык : Russian
Default : Да
Forced : Нет

Аудио #2
Идентификатор : 3
Формат : DTS
Формат/Информация : Digital Theater Systems
Идентификатор кодека : A_DTS
Продолжительность : 1 ч. 27 м.
Вид битрейта : Постоянный
Битрейт : 1510 Кбит/сек
Каналы : 6 каналов
Расположение каналов : Front: L C R, Side: L R, LFE
Частота : 48,0 КГц
Битовая глубина : 24 бит
Метод сжатия : С потерями
Размер потока : 949 Мбайт (10%)
Язык : English
Default : Нет
Forced : Нет

Текст
Идентификатор : 4
Формат : PGS
Режим смешивания : zlib
Идентификатор кодека : S_HDMV/PGS
Идентификатор кодека/Информация : The same subtitle format used on BDs/HD-DVDs
Язык : English
Default : Нет
Forced : Нет

Меню
00:00:00.000 : en:00:00:00.000
00:10:34.425 : en:00:10:34.425
00:19:53.776 : en:00:19:53.776
00:30:14.062 : en:00:30:14.062
00:40:10.950 : en:00:40:10.950
00:51:16.240 : en:00:51:16.240
01:00:56.403 : en:01:00:56.403
01:11:22.320 : en:01:11:22.320
01:19:29.765 : en:01:19:29.765


x264 [info]: frame I:134 Avg QP:16.77 size:190969
x264 [info]: frame P:7327 Avg QP:20.20 size: 95517
x264 [info]: frame B:17990 Avg QP:21.11 size: 55469
x264 [info]: consecutive B-frames: 3.2% 10.0% 9.0% 60.3% 7.8% 4.7% 2.3% 2.5%
Свернуть

Релиз группы: Изображение
Качество: BDRip 1080p
Формат: MKV

Видео: H264 / 12987 kbps / 1920x1080 / 23,976 fps / High Profile 4.1
Аудио №1: Russian / Dolby Digital / 5.1 / 48 kHz / 448 kbps
Аудио №2: English / DTS / 5.1 / 48 kHz / 1510 kbps
Рип от: BufeR

"Скриншоты"

Изображение

Изображение

Изображение

Свернуть
_________________
Изображение Изображение Изображение
Билайн / АДС добавляйте ретрекер, чтобы качать на скорости 100 Мбит/с
Cкрытый текст
Изображение
Свернуть
Не в сети
Профиль  
 Добавлено: 2012-06-04 21:08 (спустя 7 минут)
Аватара пользователя
Стаж: 8 лет 3 месяца
Возраст: 43
Сообщений: 3290
Спасибок: 21012
Лайков: 3
если звук тоже с треском, то, к сожалению, релиз тоже будет временный :(
_________________
Изображение
Не в сети
Профиль  
 Добавлено: 2012-06-04 21:09 (спустя 1 минута)
Модератор
Аватара пользователя
Стаж: 8 лет 7 месяцев
Сообщений: 4965
Спасибок: 110254
Лайков: 18
Иванишко
Если исходник такой же, то скорей всего да, написал уже в соседней теме, либо звук на лицензии косячный, либо это "чистый звук" т.к двд нет :)
_________________
Изображение Изображение Изображение
Билайн / АДС добавляйте ретрекер, чтобы качать на скорости 100 Мбит/с
Cкрытый текст
Изображение
Свернуть
Не в сети
Профиль  
 Добавлено: 2012-06-04 21:11 (спустя 1 минута)
Аватара пользователя
Стаж: 8 лет 3 месяца
Возраст: 43
Сообщений: 3290
Спасибок: 21012
Лайков: 3
NFSMW
угу :(
_________________
Изображение
Не в сети
Профиль  
 Добавлено: 2012-06-04 21:27 (спустя 16 минут)
Модератор
Аватара пользователя
Стаж: 8 лет 7 месяцев
Сообщений: 4965
Спасибок: 110254
Лайков: 18
Иванишко
Всё чисто по спектру в 720, там же сьемка на несколько камер идет и не которые явно не проф :par_don:
_________________
Изображение Изображение Изображение
Билайн / АДС добавляйте ретрекер, чтобы качать на скорости 100 Мбит/с
Cкрытый текст
Изображение
Свернуть
Не в сети
Профиль  
 Добавлено: 2012-12-26 14:26 (спустя 6 месяцев)
Руководитель релиз-группы
Аватара пользователя
Стаж: 7 лет 5 месяцев
Возраст: 31
Сообщений: 3407
Спасибок: 46729
Лайков: 5
viewtopic.php?f=1743&t=493673
Не в сети
Профиль  
Начать новую темуОтветить на тему  [ Сообщений: 6 ] 
Вы не можете начинать темы
Вы не можете отвечать на сообщения
Вы не можете редактировать свои сообщения
Вы не можете удалять свои сообщения