Правила форума

Здесь находятся раздачи, на которых не было полного источника (сида) более месяца.
Вы можете вернуть релиз в соответствующий раздел, для этого напишите нам в специальной теме и встаньте на раздачу.
Новые релизы, повторяющие релизы в архиве, повторами не считаются.
Начать новую темуОтветить на тему  [ Сообщений: 4 ] 
Сообщения
 Добавлено: 2012-01-05 01:30
Top-releaser
Стаж: 7 лет 4 месяца
Возраст: 33
Сообщений: 409
Спасибок: 6402
Лайков: 6
Изображение
Профессионал / Killer Elite

«May the Best Man Live»
Год выпуска: 2011
Страна: США, Австралия
Жанр: боевик, триллер, криминал
Продолжительность: 01:56:42
Перевод: Профессиональный (дублирование) лицензия

Режиссер: Гэри МакКендри (Gary McKendry)
Сценарий: Мэтт Шерринг / Matt Sherring, Ранульф Файнс / Ranulph Fiennes
Продюсер: Майкл Буген / Michael Boughen, Тони Уинли / Tony Winley, Стив Чэсмэн / Steve Chasman, Сигурйон Сигватссон / Sigurjon Sighvatsson, Дэвид Уили / David Whealy
Оператор: Саймон Дагган / Simon Duggan
Композитор: Райнхольд Хайль / Reinhold Heil, Джонни Клаймек / Johnny Klimek

В ролях: Джейсон Стэтхэм (Danny), Клайв Оуэн (Spike), Роберт Де Ниро (Hunter), Доминик Пурселл (Davies), Аден Янг (Meier), Ивонн Страховски (Anne), Бен Мендельсон (Martin), Адевале Акиннуойе-Агбадже (Agent), Дэвид Уайтели (MI6 Man), Мэтью Нэйбл (Pennock), Лейчи Халм (Harris), Фирасс Дирани (Bakhait)
Дублёры: Владимир Зайцев (Danny), Александр Груздев (Spike), Никита Прозоровский (Hunter), Илья Исаев (Davies), Александр Гаврилин (Meier), Денис Беспалый (Agent), Пётр Иващенко (Harris), Михаил Тихонов (Bakhait), Валерий Сторожик (Commander B), Алексей Борзунов (Sheikh Amr)

Описание: Бывшему бойцу британских силовых структур приходится забыть о тихой размеренной жизни отставника, когда его лучший друг оказывается в опасности.

Рейтинг
Kinopoisk.RU: 6.695 (7 975)
Imdb.com: 6.60 (18 133)
Mpaa: Изображение

Качество: BD Remux 1080p
Формат: BDAV
Видео: AVC; 1920x1080; ~31047 kbps; 23.976 fps
Аудио 1: Rus: 48 kHz; AC3, ~448 kbps; 6 ch
Аудио 2: Eng: 48 kHz; DTS;~3920 kbps; 6 ch
Субтитры: Russian, English

Релиз: Изображение
Mediainfo
General
ID : 1 (0x1)
Complete name : D:\uTorrent\KILLER_ELITE_2011_BD-REMUX_HDCLUB\BDMV\STREAM\00000.m2ts
Format : BDAV
Format/Info : Blu-ray Video
File size : 30.4 GiB
Duration : 1h 56mn
Overall bit rate : 37.3 Mbps
Maximum Overall bit rate : 35.5 Mbps

Video
ID : 4113 (0x1011)
Menu ID : 1 (0x1)
Format : AVC
Format/Info : Advanced Video Codec
Format profile : High@L4.1
Format settings, CABAC : Yes
Format settings, ReFrames : 4 frames
Format settings, GOP : M=2, N=25
Codec ID : 27
Duration : 1h 56mn
Bit rate mode : Variable
Bit rate : 33.8 Mbps
Maximum bit rate : 35.0 Mbps
Width : 1 920 pixels
Height : 1 080 pixels
Display aspect ratio : 16:9
Frame rate : 23.976 fps
Color space : YUV
Chroma subsampling : 4:2:0
Bit depth : 8 bits
Scan type : Progressive
Bits/(Pixel*Frame) : 0.680
Stream size : 27.6 GiB (91%)
Color primaries : BT.709-5, BT.1361, IEC 61966-2-4, SMPTE RP177
Transfer characteristics : BT.709-5, BT.1361
Matrix coefficients : BT.709-5, BT.1361, IEC 61966-2-4 709, SMPTE RP177

Audio #1
ID : 4352 (0x1100)
Menu ID : 1 (0x1)
Format : AC-3
Format/Info : Audio Coding 3
Mode extension : CM (complete main)
Codec ID : 129
Duration : 1h 56mn
Bit rate mode : Constant
Bit rate : 448 Kbps
Channel(s) : 6 channels
Channel positions : Front: L C R, Side: L R, LFE
Sampling rate : 48.0 KHz
Bit depth : 16 bits
Compression mode : Lossy
Stream size : 374 MiB (1%)
Language : Russian

Audio #2
ID : 4353 (0x1101)
Menu ID : 1 (0x1)
Format : DTS
Format/Info : Digital Theater Systems
Format profile : MA / Core
Muxing mode : Stream extension
Codec ID : 134
Duration : 1h 56mn
Bit rate mode : Variable
Bit rate : 1 576 Kbps / 1 510 Kbps
Channel(s) : 6 channels
Channel positions : Front: L C R, Side: L R, LFE
Sampling rate : 48.0 KHz
Bit depth : 24 bits
Compression mode : Lossless / Lossy
Language : English
Свернуть
Доп-но:
Сохранены оригинальные чаптеры как на Blu-ray.
Свернуть
Скриншоты
Изображение

Изображение

Изображение
Свернуть
Не в сети
Профиль  
 Добавлено: 2012-01-06 14:12 (спустя 1 день 12 часов)
Аватара пользователя
Стаж: 8 лет 1 месяц
Возраст: 31
Сообщений: 46
Спасибок: 1
раздавать будем??
Не в сети
Профиль  
 Добавлено: 2012-01-06 15:39 (спустя 1 час 27 минут)
Top-releaser
Стаж: 7 лет 4 месяца
Возраст: 33
Сообщений: 409
Спасибок: 6402
Лайков: 6
Работа :par_don:
Не в сети
Профиль  
 Добавлено: 2012-01-07 17:08 (спустя 1 день 1 час)
Стаж: 5 лет 1 месяц
Сообщений: 59
спасибо
Не в сети
Профиль  
Начать новую темуОтветить на тему  [ Сообщений: 4 ] 
Вы не можете начинать темы
Вы не можете отвечать на сообщения
Вы не можете редактировать свои сообщения
Вы не можете удалять свои сообщения