Правила форума

Здесь находятся раздачи, на которых не было полного источника (сида) более месяца.
Вы можете вернуть релиз в соответствующий раздел, для этого напишите нам в специальной теме и встаньте на раздачу.
Новые релизы, повторяющие релизы в архиве, повторами не считаются.
Начать новую темуОтветить на тему  [ Сообщений: 15 ] 
Сообщения
 Добавлено: 2012-09-12 23:17
DVD Release Group
Аватара пользователя
Стаж: 7 лет 1 месяц
Сообщений: 3544
Спасибок: 246885
Лайков: 1018
Прометей

Prometheus

«Они искали колыбель человечества, но нашли его погибель»


Изображение


Год выпуска: 2012
Страна: СШA, Brandywine Productions Ltd.
Жанр: Ужасы, фантастика, боевик
Продолжительность: 01:58:42
Перевод: Профессиональный (полное дублирование)
Субтитры: Английские, французские
Режиссер: Ридли Скотт
В ролях: Нуми Рапас, Майкл Фассбендер, Шарлиз Терон,, Идрис Эльба, Гай Пирс, Логан Маршалл-Грин, Шон Харрис, Рейф Сполл, Иман Эллиотт, Бенедикт Вонг, Кейт Дики, Патрик Уилсон, Люси Хатчинсон
Описание: В поисках сакрального знания группа ученых отправляется в самые темные и неизведанные чертоги вселенной. Именно там, в отдаленных мирах, находясь на пределе своих умственных и физических возможностей, им предстоит вступить в безжалостную схватку за будущее всего человечества.
Кинопоиск: 7.4 (29941)
IMDb: 7.5 (135784)
Качество: DVD9
Формат: DVD Video
Видео кодек: MPEG2
Аудио кодек: AC3
Видео: 720x576 25fps 5302kbps
Аудио:
Аудио Rus: 48kHz 6ch 448kbps
Аудио Eng: 48kHz 6ch 448kbps
Аудио Fra: 48kHz 6ch 384kbps
"MediaInfo"
Формат : MPEG-PS
Размер файла : 1024 Мбайт
Продолжительность : 21 м.
Режим общего битрейта : Переменный
Общий поток : 6716 Кбит/сек

Видео
Идентификатор : 224 (0xE0)
Формат : MPEG Video
Версия формата : Version 2
Профиль формата : Main@Main
Параметр BVOP формата : Да
Параметр матрицы формата : Выборочная
Продолжительность : 21 м.
Вид битрейта : Переменный
Битрейт : 5302 Кбит/сек
Максимальный битрейт : 9800 Кбит/сек
Ширина : 720 пикселей
Высота : 576 пикселей
Соотношение сторон : 16:9
Частота кадров : 25,000 кадров/сек
Стандарт вещания : PAL
Цветовое пространство : YUV
Субдискретизация насыщенности : 4:2:0
Битовая глубина : 8 бит
Тип развёртки : Прогрессивная
Порядок развёртки : Верхнее поле первое
Метод сжатия : С потерями
Бит/(Пиксели*Кадры) : 0.511
Размер потока : 808 Мбайт (79%)

Аудио #1
Идентификатор : 189 (0xBD)-128 (0x80)
Формат : AC-3
Формат/Информация : Audio Coding 3
Расширение режима : CM (complete main)
Режим смешивания : DVD-Video
Продолжительность : 21 м.
Вид битрейта : Постоянный
Битрейт : 448 Кбит/сек
Каналы : 6 каналов
Расположение каналов : Front: L C R, Side: L R, LFE
Частота : 48,0 КГц
Битовая глубина : 16 бит
Метод сжатия : С потерями
Размер потока : 68,3 Мбайт (7%)

Аудио #2
Идентификатор : 189 (0xBD)-129 (0x81)
Формат : AC-3
Формат/Информация : Audio Coding 3
Расширение режима : CM (complete main)
Режим смешивания : DVD-Video
Продолжительность : 21 м.
Вид битрейта : Постоянный
Битрейт : 448 Кбит/сек
Каналы : 6 каналов
Расположение каналов : Front: L C R, Side: L R, LFE
Частота : 48,0 КГц
Битовая глубина : 16 бит
Метод сжатия : С потерями
Размер потока : 68,3 Мбайт (7%)

Аудио #3
Идентификатор : 189 (0xBD)-130 (0x82)
Формат : AC-3
Формат/Информация : Audio Coding 3
Расширение режима : CM (complete main)
Режим смешивания : DVD-Video
Продолжительность : 21 м.
Вид битрейта : Постоянный
Битрейт : 384 Кбит/сек
Каналы : 6 каналов
Расположение каналов : Front: L C R, Side: L R, LFE
Частота : 48,0 КГц
Битовая глубина : 16 бит
Метод сжатия : С потерями
Размер потока : 58,5 Мбайт (6%)

Текст #1
Идентификатор : 189 (0xBD)-32 (0x20)
Формат : RLE
Формат/Информация : Run-length encoding
Режим смешивания : DVD-Video

Текст #2
Идентификатор : 189 (0xBD)-33 (0x21)
Формат : RLE
Формат/Информация : Run-length encoding
Режим смешивания : DVD-Video

Текст #3
Идентификатор : 189 (0xBD)-34 (0x22)
Формат : RLE
Формат/Информация : Run-length encoding
Режим смешивания : DVD-Video

Текст #4
Идентификатор : 189 (0xBD)-35 (0x23)
Формат : RLE
Формат/Информация : Run-length encoding
Режим смешивания : DVD-Video

Меню
Свернуть

"Скриншоты"
Изображение
Изображение
Изображение
Изображение
Изображение
Изображение
Изображение
Изображение
Свернуть

Раздача группы:
Изображение
Не в сети
Профиль  
 Добавлено: 2012-09-13 22:08 (спустя 22 часа)
Аватара пользователя
Стаж: 6 лет 3 месяца
Возраст: 23
Сообщений: 352
Лайков: 4
кто-нибудь понял смысл фильма?
_________________

Изображение
Не в сети
Профиль  
 Добавлено: 2012-09-14 07:44 (спустя 9 часов)
Аватара пользователя
Стаж: 7 лет
Сообщений: 56
Спасибок: 237
Спасибо, давно ждал :co_ol:
Не в сети
Профиль  
 Добавлено: 2012-09-14 13:23 (спустя 5 часов)
Аватара пользователя
Стаж: 6 лет 9 месяцев
Возраст: 38
Сообщений: 43
когда BDRip?
Не в сети
Профиль  
 Добавлено: 2012-09-14 16:54 (спустя 3 часа)
DVD Release Group
Аватара пользователя
Стаж: 7 лет 9 месяцев
Сообщений: 364
Спасибок: 3086
Лайков: 10
Смысл прост, это предыстория фильмов «Чужие», правда, инопланетянина перед смертью следовало посадить в кресло пилота, тогда сюжет лучше бы стыковался с 1 частью «Чужой», хотя кроме этого полно всяких мелких не состыковок.
rastor
Кстати отдельное спасибо за качество, картинка отличная (интересно, откуда дровишки, похоже в основе видео R2). Звук тоже вполне (всего в паре тройке мест есть посторонние шумы). :co_ol:
Не в сети
Профиль  
 Добавлено: 2012-09-14 18:47 (спустя 1 час 53 минуты)
Стаж: 5 лет 3 месяца
Сообщений: 150
Лайков: 1
Фильм супер!
Не в сети
Профиль  
 Добавлено: 2012-09-14 20:09 (спустя 1 час 21 минута)
Аватара пользователя
Стаж: 4 года 10 месяцев
Возраст: 26
Сообщений: 308
Фильм гамно не очём :ne_ne: :ne_ne:
_________________
Моё железо: ASUS Socket-M5A78L-M LX V2, AMD Phenom II X4 975 (3.6 GHz)
PCI-E ASUS GeForce GTX 550Ti 1024MB 192 bit GDDR5.
DEEPCOOL Ice Edge 400FS.
DIMM DDR 4096MBx2 1333MHz Kingston.
Corsair CX 500W.
Не в сети
Профиль  
 Добавлено: 2012-09-15 18:23 (спустя 22 часа)
Аватара пользователя
Стаж: 6 лет 9 месяцев
Возраст: 38
Сообщений: 43
это конечно приквел,но слишком много вопросов а не ответов
Не в сети
Профиль  
 Добавлено: 2012-09-15 19:16 (спустя 52 минуты)
Аватара пользователя
Стаж: 7 лет 7 месяцев
Сообщений: 286
Лайков: 29
когда бд ?
Не в сети
Профиль  
 Добавлено: 2012-09-15 19:32 (спустя 16 минут)
DVD Release Group
Аватара пользователя
Стаж: 7 лет 1 месяц
Сообщений: 3544
Спасибок: 246885
Лайков: 1018
cayp123
Релиз на Blu-Ray: 4 октября 2012, «Двадцатый Век Фокс СНГ»
Релиз на DVD: 4 октября 2012, «Двадцатый Век Фокс СНГ»
Не в сети
Профиль  
 Добавлено: 2012-09-15 23:33 (спустя 4 часа)
Аватара пользователя
Стаж: 7 лет 2 месяца
Возраст: 24
Сообщений: 861
Лайков: 17
Посмотрел наконец в норм.качестве. Теперь все ответы даны. :)
Не в сети
Профиль  
 Добавлено: 2012-09-16 16:56 (спустя 17 часов)
Стаж: 8 лет
Сообщений: 54
Спасибо автору,раздающим.
Не в сети
Профиль  
 Добавлено: 2012-09-16 19:16 (спустя 2 часа 20 минут)
Аватара пользователя
Стаж: 7 лет 7 месяцев
Сообщений: 286
Лайков: 29
растор , спасибо !
Не в сети
Профиль  
 Добавлено: 2012-09-16 20:26 (спустя 1 час 9 минут)
Аватара пользователя
Стаж: 7 лет 1 месяц
Сообщений: 162
Спасибок: 76
Лайков: 3
Фильм башню рвёт, копия Чужих! :ps_ih: :ps_ih:
Спаибо автор :co_ol:
_________________
Изображение

Cкрытый текст
Изображение

Нанимай гномов и добывай руду, переводи руду в золото, золото в реальные деньги!!! -->http://goo.gl/f1pYo7
Свернуть
Не в сети
Профиль  
 Добавлено: 2012-09-22 21:06 (спустя 6 дней)
Руководитель релиз-группы
Аватара пользователя
Стаж: 7 лет 4 месяца
Возраст: 31
Сообщений: 3407
Спасибок: 46729
Лайков: 5
viewtopic.php?f=1746&t=481347
Не в сети
Профиль  
Начать новую темуОтветить на тему  [ Сообщений: 15 ] 
Вы не можете начинать темы
Вы не можете отвечать на сообщения
Вы не можете редактировать свои сообщения
Вы не можете удалять свои сообщения