Правила форума

Здесь находятся раздачи, на которых не было полного источника (сида) более месяца.
Вы можете вернуть релиз в соответствующий раздел, для этого напишите нам в специальной теме и встаньте на раздачу.
Новые релизы, повторяющие релизы в архиве, повторами не считаются.
Начать новую темуОтветить на тему  [ Сообщений: 2 ] 
Сообщения
 Добавлено: 2012-11-01 19:22
Аватара пользователя
Стаж: 4 года 1 месяц
Сообщений: 4
Спасибок: 22
Изображение

Изображение

Страна: США, Великобритания
Слоган: «Они искали колыбель человечества, но нашли его погибель»
Студия: Brandywine Productions Ltd
Жанр: фантастика, триллер, приключения
Год выпуска: 2012
Продолжительность: 02:03:46
Перевод 1: Профессиональный (дублированный) Blu-ray EUR
Перевод 2: Одноголосый (закадровый) Zamez
Cубтитры: Russian, Ukrainian, English, Russian (Commentary №1), Russian (Commentary №2)
Оригинальная аудиодорожка: английский

Режиссер: Ридли Скотт / Ridley Scott

В ролях: Нуми Рапас, Майкл Фассбендер, Шарлиз Терон, Идрис Эльба, Гай Пирс, Логан Маршалл-Грин, Шон Харрис, Рейф Сполл, Иман Эллиотт, Бенедикт Вонг

Описание: В поисках сакрального знания группа ученых отправляется в самые темные и неизведанные чертоги вселенной. Именно там, в отдаленных мирах, находясь на пределе своих умственных и физических возможностей, им предстоит вступить в безжалостную схватку за будущее всего человечества...

Изображение7.306 (46 269)

Тип релиза: BDRip 720p
Контейнер: MKV
Видeо: AVC,1280 X 534, 5000 Kbps,23.976 fps
Аудио 1: Russian: 48 kHz, DTS, 3/2 (L,C,R,l,r) + LFE ch, ~768.00 kbps avg |Дубляж, Blu-ray EUR|
Аудио 2: Ukrainian: 48 kHz, AC3, 3/2 (L,C,R,l,r) + LFE ch, ~448.00 kbps avg |Дубляж, Blu-ray EUR|
Аудио 3: Russian: 48 kHz, AC3, 3/2 (L,C,R,l,r) + LFE ch, ~640.00 kbps |Zamez|
Аудио 4: English: 48 kHz, DTS, 3/2 (L,C,R,l,r) + LFE ch, ~1536.00 kbps avg |Original|
Аудио 5: English: 48 kHz, AC3, 2/0 (L,R) ch, ~224.00 kbps avg |Commentary №1 (Ридли Скотт)|
Аудио 6: English: 48 kHz, AC3, 2/0 (L,R) ch, ~224.00 kbps avg |Commentary №2 (Джон Спэйтс)|
Чаптеры: есть
MediaInfo
General
Unique ID : 183757567542226130061721265970788985751 (0x8A3E6B912940F7679CC4806F3B886B97)
Complete name : D:\Prometheus.2012.720p.Bluray.DTS.x264-DON.mkv
Format : Matroska
Format version : Version 2
File size : 7.23 GiB
Duration : 2h 3mn
Overall bit rate : 8 364 Kbps
Movie name : -Talian-
Encoded date : UTC 2012-09-29 08:34:40
Writing application : mkvmerge v5.7.0 ('The Whirlwind') built on Jul 8 2012 20:08:51
Writing library : libebml v1.2.3 + libmatroska v1.3.0

Video
ID : 1
Format : AVC
Format/Info : Advanced Video Codec
Format profile : High@L4.1
Format settings, CABAC : Yes
Format settings, ReFrames : 11 frames
Codec ID : V_MPEG4/ISO/AVC
Duration : 2h 3mn
Bit rate : 5 000 Kbps
Width : 1 280 pixels
Height : 534 pixels
Display aspect ratio : 2.40:1
Frame rate : 23.976 fps
Color space : YUV
Chroma subsampling : 4:2:0
Bit depth : 8 bits
Scan type : Progressive
Bits/(Pixel*Frame) : 0.305
Stream size : 4.19 GiB (58%)
Title : Prometheus.2012.720p.Bluray.DTS.x264-DON
Writing library : x264 core 116 r2057 0ba8a9c
Encoding settings : cabac=1 / ref=11 / deblock=1:-3:-3 / analyse=0x3:0x133 / me=umh / subme=10 / psy=1 / psy_rd=1.00:0.00 / mixed_ref=1 / me_range=32 / chroma_me=1 / trellis=2 / 8x8dct=1 / cqm=0 / deadzone=21,11 / fast_pskip=0 / chroma_qp_offset=-2 / threads=14 / sliced_threads=0 / nr=0 / decimate=0 / interlaced=0 / bluray_compat=0 / constrained_intra=0 / bframes=7 / b_pyramid=2 / b_adapt=2 / b_bias=0 / direct=3 / weightb=1 / open_gop=0 / weightp=2 / keyint=250 / keyint_min=23 / scenecut=40 / intra_refresh=0 / rc_lookahead=40 / rc=2pass / mbtree=0 / bitrate=5000 / ratetol=1.0 / qcomp=0.65 / qpmin=0 / qpmax=40 / qpstep=4 / cplxblur=20.0 / qblur=0.5 / vbv_maxrate=50000 / vbv_bufsize=50000 / nal_hrd=none / ip_ratio=1.25 / pb_ratio=1.25 / aq=1:0.65
Language : English
Default : No
Forced : No

Audio #1
ID : 2
Format : DTS
Format/Info : Digital Theater Systems
Codec ID : A_DTS
Duration : 2h 3mn
Bit rate mode : Constant
Bit rate : 755 Kbps
Channel(s) : 6 channels
Channel positions : Front: L C R, Side: L R, LFE
Sampling rate : 48.0 KHz
Bit depth : 24 bits
Compression mode : Lossy
Stream size : 668 MiB (9%)
Title : Dub-Blu-ray EUR
Language : Russian
Default : Yes
Forced : No

Audio #2
ID : 3
Format : AC-3
Format/Info : Audio Coding 3
Mode extension : CM (complete main)
Format settings, Endianness : Big
Codec ID : A_AC3
Duration : 2h 3mn
Bit rate mode : Constant
Bit rate : 448 Kbps
Channel(s) : 6 channels
Channel positions : Front: L C R, Side: L R, LFE
Sampling rate : 48.0 KHz
Bit depth : 16 bits
Compression mode : Lossy
Stream size : 397 MiB (5%)
Title : DUB-Blu-ray EUR
Language : Ukrainian
Default : No
Forced : No

Audio #3
ID : 4
Format : AC-3
Format/Info : Audio Coding 3
Mode extension : CM (complete main)
Format settings, Endianness : Big
Codec ID : A_AC3
Duration : 2h 3mn
Bit rate mode : Constant
Bit rate : 640 Kbps
Channel(s) : 6 channels
Channel positions : Front: L C R, Side: L R, LFE
Sampling rate : 48.0 KHz
Bit depth : 16 bits
Compression mode : Lossy
Stream size : 567 MiB (8%)
Title : VO-Zamez
Language : Russian
Default : No
Forced : No

Audio #4
ID : 5
Format : DTS
Format/Info : Digital Theater Systems
Codec ID : A_DTS
Duration : 2h 3mn
Bit rate mode : Constant
Bit rate : 1 510 Kbps
Channel(s) : 6 channels
Channel positions : Front: L C R, Side: L R, LFE
Sampling rate : 48.0 KHz
Bit depth : 24 bits
Compression mode : Lossy
Stream size : 1.31 GiB (18%)
Title : Original
Language : English
Default : No
Forced : No

Text #1
ID : 6
Format : UTF-8
Codec ID : S_TEXT/UTF8
Codec ID/Info : UTF-8 Plain Text
Title : Sub
Language : Russian
Default : No
Forced : No

Text #2
ID : 7
Format : UTF-8
Codec ID : S_TEXT/UTF8
Codec ID/Info : UTF-8 Plain Text
Title : Sub
Language : Ukrainian
Default : No
Forced : No

Text #3
ID : 8
Format : UTF-8
Codec ID : S_TEXT/UTF8
Codec ID/Info : UTF-8 Plain Text
Title : Sub
Language : English
Default : No
Forced : No

Text #4
ID : 9
Format : UTF-8
Codec ID : S_TEXT/UTF8
Codec ID/Info : UTF-8 Plain Text
Title : Commentary №1 (Ридли Скотт)
Language : English
Default : No
Forced : No

Text #5
ID : 10
Format : UTF-8
Codec ID : S_TEXT/UTF8
Codec ID/Info : UTF-8 Plain Text
Title : Commentary №2 (Джон Спэйтс)
Language : English
Default : No
Forced : No

Text #6
ID : 11
Format : UTF-8
Codec ID : S_TEXT/UTF8
Codec ID/Info : UTF-8 Plain Text
Title : Sub
Language : Portuguese
Default : No
Forced : No

Text #7
ID : 12
Format : UTF-8
Codec ID : S_TEXT/UTF8
Codec ID/Info : UTF-8 Plain Text
Title : Sub
Language : French
Default : No
Forced : No

Text #8
ID : 13
Format : UTF-8
Codec ID : S_TEXT/UTF8
Codec ID/Info : UTF-8 Plain Text
Title : Sub
Language : Vietnamese
Default : No
Forced : No

Text #9
ID : 14
Format : UTF-8
Codec ID : S_TEXT/UTF8
Codec ID/Info : UTF-8 Plain Text
Title : Sub
Language : Greek
Default : No
Forced : No

Menu
00:00:00.000 : en:00:00:00.000
00:05:13.146 : en:00:05:13.146
00:07:44.881 : en:00:07:44.881
00:11:31.524 : en:00:11:31.524
00:15:09.784 : en:00:15:09.784
00:20:04.912 : en:00:20:04.912
00:22:32.810 : en:00:22:32.810
00:27:43.120 : en:00:27:43.120
00:31:57.833 : en:00:31:57.833
00:34:10.840 : en:00:34:10.840
00:37:53.229 : en:00:37:53.229
00:40:45.360 : en:00:40:45.360
00:45:49.330 : en:00:45:49.330
00:48:47.925 : en:00:48:47.925
00:50:23.062 : en:00:50:23.062
00:53:56.400 : en:00:53:56.400
00:56:32.222 : en:00:56:32.222
00:59:31.610 : en:00:59:31.610
01:01:29.185 : en:01:01:29.185
01:04:17.562 : en:01:04:17.562
01:06:01.457 : en:01:06:01.457
01:08:57.884 : en:01:08:57.884
01:11:13.519 : en:01:11:13.519
01:15:10.631 : en:01:15:10.631
01:17:06.038 : en:01:17:06.038
01:25:02.306 : en:01:25:02.306
01:27:09.349 : en:01:27:09.349
01:30:10.363 : en:01:30:10.363
01:32:43.725 : en:01:32:43.725
01:35:23.134 : en:01:35:23.134
01:37:46.861 : en:01:37:46.861
01:40:46.374 : en:01:40:46.374
01:43:46.220 : en:01:43:46.220
01:48:28.794 : en:01:48:28.794
01:52:08.096 : en:01:52:08.096
01:58:06.288 : en:01:58:06.288
Свернуть
Скриншоты
Изображение
Изображение
Изображение
Свернуть
Не в сети
Профиль  
 Добавлено: 2012-11-01 19:58 (спустя 35 минут)
Руководитель релиз-группы
Аватара пользователя
Стаж: 7 лет 4 месяца
Возраст: 31
Сообщений: 3407
Спасибок: 46729
Лайков: 5
повтор
viewtopic.php?f=1750&t=482126
Не в сети
Профиль  
Начать новую темуОтветить на тему  [ Сообщений: 2 ] 
Вы не можете начинать темы
Вы не можете отвечать на сообщения
Вы не можете редактировать свои сообщения
Вы не можете удалять свои сообщения