Правила форума

Здесь находятся раздачи, на которых не было полного источника (сида) более месяца.
Вы можете вернуть релиз в соответствующий раздел, для этого напишите нам в специальной теме и встаньте на раздачу.
Новые релизы, повторяющие релизы в архиве, повторами не считаются.
Начать новую темуОтветить на тему  [ Сообщений: 3 ] 
Сообщения
 Добавлено: 2012-03-26 22:58
Модератор
Аватара пользователя
Стаж: 8 лет 1 месяц
Сообщений: 1991
Спасибок: 129863
Лайков: 20
Проповедник с пулеметом / Machine Gun Preacher


«Hope is the greatest weapon of all»



Изображение
Год выпуска: 2011
Страна: Изображение США
Жанр: боевик, драма, криминал, биография
Продолжительность:
02:08:44

Перевод: Любительский (одноголосый) den904

Режиссер: Марк Форстер
Сценарий: Джейсон Келлер
Продюсер: Робби Бреннер, Gary Safady, Крэйг Чэпман, Марк Форстер, Дебора Джиаратана
Оператор: Роберто Шэфер
Композитор: Эш & Спенсер, Тэд Спенсер

В ролях:
Джерард Батлер (Sam Childers), Мишель Монахэн (Lynn Childers), Кэти Бейкер (Daisy), Майкл Шеннон (Donnie), Мадлен Кэрролл (Paige), Соулеймейн Сай Савейн (Deng), Грант Р. Краузе (Billy / Contractor), Ривис Грэхэм (Pastor Krause), Питер Кэри (Bill Wallace), Барбара Ковен (Shannon Wallace), Мисти Миллс (Biker Chick), Nicole Michele Sobchack (Bartender)

Описание: Байкер Сэм Чайлдерс имел множество проблем с законом, но после выхода из тюрьмы, вняв мольбам жены Линн, начал посещать церковь. Бывшего преступника словно подменили: он стал примерным прихожанином, основал строительную компанию и сам возвел с нуля протестантский храм для тех, кого благополучные американцы презрительно именовали «отбросами общества»… Ровное течение жизни Сэма меняется после миссионерской поездки в Уганду и Судан.
Проникнувшись состраданием к африканским детям, он решает основать приют, в котором те чувствовали бы себя в безопасности от боевиков Господней армии Сопротивления, набирающих себе солдат и сексуальных рабынь даже среди малолетних. Своих подопечных, если потребуется, Сэм готов защищать с оружием в руках. Однако в своем рвении Чайлдерс забывает о том, что обратной стороной любого благого порыва может стать одержимость…


Изображение: 6.871 (1 089)
Изображение: 6.70 (4 842)

MPAA: Изображение - Лицам до 17 лет обязательно присутствие взрослого

Доп. Информация
Бюджет: $30 000 000
Сборы в США: $538 690
Сборы в мире: $1 104 633
Мировая премьера: 11 сентября 2011
Релиз на DVD: Июнь 2012, «Вольга»

Свернуть

Релиз группы: Изображение
Качество: BDRip 1080p

Формат: MKV
Видео: AVC; 1920x800 (2.40:1); 15171 Kbps; 24 fps; 0,412 bpp
Аудио №1: Russian; AC3; 448 Kbps; CBR; 6 ch; 16 bit
Аудио №2: English; DTS; 1509 Kbps; CBR; 6 ch; 24 bit
Изображение


Знаете ли Вы, что...
  • Фильм основан на реальных событиях.
Свернуть
BDInfo
Общее
Полное имя : D:\фильмы\Machine.Gun.Preacher.2011.BluRay.1080p.x264.mkv
Формат : Matroska
Версия формата : Version 2
Размер файла : 15,4 Гбайт
Продолжительность : 2 ч. 8 м.
Общий поток : 17,1 Мбит/сек
Название фильма : Uralmix
Дата кодирования : UTC 2012-03-25 18:12:48
Программа кодирования : mkvmerge v3.0.0 ('Hang up your Hang-Ups') built on Jan 6 2010 22:49:38
Библиотека кодирования : libebml v0.7.9 + libmatroska v0.8.1
Видео
Идентификатор : 1
Формат : AVC
Формат/Информация : Advanced Video Codec
Профиль формата : High@L4.1
Параметр CABAC формата : Да
Параметр ReFrames формата : 5 кадров
Идентификатор кодека : V_MPEG4/ISO/AVC
Продолжительность : 2 ч. 8 м.
Битрейт : 15,2 Мбит/сек
Ширина : 1920 пикселей
Высота : 800 пикселей
Соотношение сторон : 2,40:1
Частота кадров : 24,000 кадра/сек
Цветовое пространство : YUV
Субдискретизация насыщенности : 4:2:0
Битовая глубина : 8 бит
Тип развёртки : Прогрессивная
Бит/(Пиксели*Кадры) : 0.412
Размер потока : 13,3 Гбайт (87%)
Заголовок : Machine.Gun.Preacher.2011
Библиотека кодирования : x264 core 120 r2146 bcd41db
Настройки программы : cabac=1 / ref=5 / deblock=1:-3:-3 / analyse=0x3:0x113 / me=umh / subme=10 / psy=1 / psy_rd=1.05:0.10 / mixed_ref=1 / me_range=32 / chroma_me=1 / trellis=2 / 8x8dct=1 / cqm=0 / deadzone=21,11 / fast_pskip=0 / chroma_qp_offset=-2 / threads=8 / sliced_threads=0 / nr=0 / decimate=1 / interlaced=0 / bluray_compat=0 / constrained_intra=0 / bframes=6 / b_pyramid=2 / b_adapt=2 / b_bias=0 / direct=3 / weightb=1 / open_gop=0 / weightp=2 / keyint=250 / keyint_min=24 / scenecut=40 / intra_refresh=0 / rc_lookahead=40 / rc=2pass / mbtree=0 / bitrate=15171 / ratetol=1.0 / qcomp=0.70 / qpmin=0 / qpmax=69 / qpstep=4 / cplxblur=20.0 / qblur=0.5 / vbv_maxrate=40000 / vbv_bufsize=40000 / nal_hrd=none / ip_ratio=1.40 / pb_ratio=1.30 / aq=2:0.80
Язык : English
Default : Нет
Forced : Нет
Аудио #1
Идентификатор : 2
Формат : AC-3
Формат/Информация : Audio Coding 3
Расширение режима : CM (complete main)
Идентификатор кодека : A_AC3
Продолжительность : 2 ч. 8 м.
Вид битрейта : Постоянный
Битрейт : 448 Кбит/сек
Каналы : 6 каналов
Расположение каналов : Front: L C R, Side: L R, LFE
Частота : 48,0 КГц
Битовая глубина : 16 бит
Метод сжатия : С потерями
Размер потока : 413 Мбайт (3%)
Язык : Russian
Default : Нет
Forced : Нет
Аудио #2
Идентификатор : 3
Формат : DTS
Формат/Информация : Digital Theater Systems
Идентификатор кодека : A_DTS
Продолжительность : 2 ч. 8 м.
Вид битрейта : Постоянный
Битрейт : 1510 Кбит/сек
Каналы : 6 каналов
Расположение каналов : Front: L C R, Side: L R, LFE
Частота : 48,0 КГц
Битовая глубина : 24 бит
Метод сжатия : С потерями
Размер потока : 1,36 Гбайт (9%)
Язык : English
Default : Нет
Forced : Нет
Свернуть
Скриншоты
Изображение
Изображение
Изображение
Свернуть

_________________
Себе ты можешь не качать, но раздавать другим обязан!
Не в сети
Профиль  
 Добавлено: 2012-03-30 07:42 (спустя 3 дня)
Аватара пользователя
Стаж: 9 лет 1 месяц
Возраст: 31
Сообщений: 581
Спасибок: 771
понравился!спасибо!
_________________
Изображение
Не в сети
Профиль  
 Добавлено: 2012-04-04 11:23 (спустя 5 дней)
Аватара пользователя
Стаж: 8 лет 11 месяцев
Сообщений: 198
Очень сильный фильм со всех сторон. Я под впечатлением с красными глазами буквально от всей той энергии, увиденной мною.

Спасибо, что такие люди на самом деле существуют.
Не в сети
Профиль  
Начать новую темуОтветить на тему  [ Сообщений: 3 ] 
Вы не можете начинать темы
Вы не можете отвечать на сообщения
Вы не можете редактировать свои сообщения
Вы не можете удалять свои сообщения