Правила форума

Здесь находятся раздачи, на которых не было полного источника (сида) более месяца.
Вы можете вернуть релиз в соответствующий раздел, для этого напишите нам в специальной теме и встаньте на раздачу.
Новые релизы, повторяющие релизы в архиве, повторами не считаются.
Начать новую темуОтветить на тему  [ 1 сообщение ] 
Сообщения
 Добавлено: 2011-03-21 23:30
Аватара пользователя
Стаж: 8 лет
Возраст: 23
Сообщений: 2472
Спасибок: 27961
Лайков: 2
Прошлой ночью в Нью-Йорке / Last Night


«Куда приводят желания»



Изображение
Год выпуска: 2010
Страна: Изображение США, Изображение Франция
Жанр: мелодрама
Продолжительность:
01:32:30

Перевод: Профессиональный (полное дублирование) [лицензия]

Режиссер: Мэсси Таджедин
Сценарий: Мэсси Таджедин
Продюсер: Кристоф Рианди, Мэсси Таджедин, Ник Уэкслер, Бадди Энрайт, Сацуки Митчелл
Оператор: Питер Диминг
Композитор: Клинт Мэнселл

В ролях:
Кира Найтли (Joanna Reed), Сэм Уортингтон (Michael Reed), Ева Мендес (Laura), Гийом Кане (Alex Mann), Энсон Маунт (Andy), Скотт Эдсит (Stuart), Гриффин Данн (Truman), Стефани Романов (Sandra), Дэниэл Эрик Голд (Andy), Джастин Котсонас (Maggie), Стефен Мэйлер (Client #1), Rae Ritke (Barbara)
Дублёры: Наталья Фищук (Joanna Reed) (Joanna Reed), Илья Хвостиков (Michael Reed) (Michael Reed), Татьяна Шитова (Laura) (Laura), Иван Жарков (Alex Mann) (Alex Mann), Дмитрий Курта (Andy) (Andy), Игорь Тарадайкин (Truman) (Truman), Михаил Лукашов, Наталья Грачева

Описание: Молодожены Майкл и Джоанна - красивы, успешны, живут в огромной квартире центра Манхеттена, но всего одна ночь заставит их усомниться друг в друге...
За день до нее на вечеринке Джоанне всего на мгновение покажется, что Майкл неравнодушен к симпатичной Лауре, своей новой сотруднице, с которой ему предстоит отправиться в командировку... И когда на следующее утро неподалеку от дома Джоанна встретит своего бывшего возлюбленного, французского драматурга Алекса, она примет его предложение поужинать, не задумываясь...
Так начнется долгая ночь, которая станет для Джоанны и Майкла настоящим испытанием в супружеской верности...


Изображение: 7.228 (6 842)
Изображение: 6.90 (905)

MPAA: Изображение - Лицам до 17 лет обязательно присутствие взрослого

Доп. Информация

Бюджет: $7 000 000
Сборы в России: $1 916 510
Сборы в мире: $7 500 000
Мировая премьера: 18 сентября 2010
Изображение Релиз на DVD: 17 февраля 2011, «Монолит»
Изображение Релиз на Blu-ray: 22 марта 2011, «Монолит»

Свернуть

Релиз группы: Изображение

Качество: BDRip 720p R5

Формат: AVI
Видео: AVC x264, 6 221 Kbps, 1 280х544, 23.976 fps
Аудио: Russian: AC3, 384 kb/s (6 ch) / English: DTS, 1510 kb/s (6 ch)
Изображение


Знаете ли Вы, что...
  • На роль Джоанны претендовала Джессика Бил.
  • Четырех главных героев играют актеры разных национальностей. Кира Найтли - англичанка, Сэм Уортингтон - австралиец, Ева Мендес - американка, Гийом Кане - француз.
Свернуть
BDInfo

Полное имя : Last.Night.2010.D.BDRip.720p.mkv
Формат : Matroska
Размер файла : 5,24 Гбайт
Продолжительность : 1 ч. 32 м.
Общий поток : 8114 Кбит/сек
Название фильма : Прошлой ночью в Нью-Йорке / Last Night (2010)
Дата кодирования : UTC 2011-03-21 18:10:49
Программа кодирования : mkvmerge v4.6.0 ('Still Crazy After All These Years') сборка от Mar 10 2011 02:50:32
Библиотека кодирования : libebml v1.2.0 + libmatroska v1.1.0

Видео
Идентификатор : 1
Формат : AVC
Формат/Информация : Advanced Video Codec
Профиль формата : High@L3.1
Параметр CABAC формата : Да
Параметр ReFrames формата : 4 кадры
Идентификатор кодека : V_MPEG4/ISO/AVC
Продолжительность : 1 ч. 32 м.
Битрейт : 6221 Кбит/сек
Ширина : 1280 пикс.
Высота : 544 пикс.
Соотношение сторон : 2,35:1
Частота кадров : 23,976 кадр/сек
Цветовое пространство : YUV
Подвыборка цветности : 4:2:0
Битовая глубина : 8 бит
Тип развёртки : Прогрессивная
Бит/(Пиксели*Кадры) : 0.373
Размер потока : 3,92 Гбайт (75%)
Заголовок : Last.Night.2010.D.BDRip.720p
Библиотека кодирования : x264 core 105 r1724 b02df7b
Настройки программы : cabac=1 / ref=4 / deblock=1:-3:-3 / analyse=0x3:0x113 / me=umh / subme=7 / psy=1 / psy_rd=1.00:0.00 / mixed_ref=1 / me_range=16 / chroma_me=1 / trellis=1 / 8x8dct=1 / cqm=0 / deadzone=21,11 / fast_pskip=1 / chroma_qp_offset=-2 / threads=12 / sliced_threads=0 / nr=0 / decimate=1 / interlaced=0 / constrained_intra=0 / bframes=3 / b_pyramid=2 / b_adapt=2 / b_bias=0 / direct=1 / weightb=1 / open_gop=0 / weightp=2 / keyint=240 / keyint_min=23 / scenecut=40 / intra_refresh=0 / rc_lookahead=50 / rc=2pass / mbtree=1 / bitrate=6221 / ratetol=1.0 / qcomp=0.60 / qpmin=10 / qpmax=51 / qpstep=4 / cplxblur=20.0 / qblur=0.5 / ip_ratio=1.40 / aq=1:1.00
Язык : English
Основные цвета : BT.709-5, BT.1361, IEC 61966-2-4, SMPTE RP177
Характеристики трансфера : BT.709-5, BT.1361
Коэффициенты матрицы : BT.709-5, BT.1361, IEC 61966-2-4 709, SMPTE RP177

Аудио #1
Идентификатор : 2
Формат : AC-3
Формат/Информация : Audio Coding 3
Расширение режима : CM (complete main)
Идентификатор кодека : A_AC3
Продолжительность : 1 ч. 32 м.
Вид битрейта : Постоянный
Битрейт : 384 Кбит/сек
Канал(ы) : 6 канала(ов)
Расположение каналов : Front: L C R, Side: L R, LFE
Частота : 48,0 КГц
Битовая глубина : 16 бит
Метод сжатия : С потерями
Размер потока : 254 Мбайт (5%)
Заголовок : AC3 5.1 @ 384 kb/s [Russian DUB R5]
Язык : Russian

Аудио #2
Идентификатор : 3
Формат : DTS
Формат/Информация : Digital Theater Systems
Идентификатор кодека : A_DTS
Продолжительность : 1 ч. 32 м.
Вид битрейта : Постоянный
Битрейт : 1510 Кбит/сек
Канал(ы) : 6 канала(ов)
Расположение каналов : Front: L C R, Side: L R, LFE
Частота : 48,0 КГц
Битовая глубина : 16 бит
Метод сжатия : С потерями
Задержка видео : 21 мс.
Размер потока : 999 Мбайт (19%)
Заголовок : DTS 5.1 @ 1510 kb/s [English]
Язык : English
Свернуть
Скриншоты

Изображение
Изображение
Изображение
Свернуть

_________________
Изображение

Изображение
Не в сети
Профиль  
Начать новую темуОтветить на тему  [ 1 сообщение ] 
Вы не можете начинать темы
Вы не можете отвечать на сообщения
Вы не можете редактировать свои сообщения
Вы не можете удалять свои сообщения