Правила форума

Здесь находятся раздачи, на которых не было полного источника (сида) более месяца.
Вы можете вернуть релиз в соответствующий раздел, для этого напишите нам в специальной теме и встаньте на раздачу.
Новые релизы, повторяющие релизы в архиве, повторами не считаются.
Начать новую темуОтветить на тему  [ 1 сообщение ] 
Сообщения
 Добавлено: 2012-03-22 20:59
Top-releaser
Аватара пользователя
Стаж: 7 лет 3 месяца
Возраст: 25
Сообщений: 1036
Спасибок: 2694
Лайков: 9
Q: Загадка женщины
Q


«Хочешь быть любим? Люби!»

Изображение


Год выхода: 2011
Страна: Франция

Жанр: драма
Продолжительность: 01:42:18
Перевод: Профессиональное (многоголосое) [Лицензия]

Режиссер: Лоран Буник
Сценарий: Лоран Буник
Продюсер: Чика Бенадава, Луди Бокен, Паскаль Юделевич, ...
Оператор: Доминик Колен
Композитор: Эрнест Сэйнт Лорен

В ролях: Дебора Реви, Хелен Зиммер, Гоуэн Диди, Джонни Амаро, Жоан Либеро, Жан-Франсуа Галлот, Брайс Форнье, Кристелль Бенуа, Патрик Готье, Летиция Белличчини, Фабьен Ара, Аурелия Арто, Кристин Мартин, Бернард Вернь, Луди Бокен, Паскаль Юделевич, Лоранс Гормезано, Мишель Гондуэн, Винсент Джили

Описание: Когда судьба приводит людей на грань отчаяния, единственным способом вновь ощутить вкус жизни может стать нежданный аттракцион грандиозных чувственных наслаждений, которые способна дарить каждому новому знакомому очаровательная Сесиль. Попадая к юной красотке в сладкий плен удовольствий, любой теряет голову; все прочее перестает иметь для него значение, кроме одного — секс, секс, секс…

Изображение

Изображение

Бюджет: €1 040 000

Качество DVD 9R5
Формат: Mkv

Видео: MPEG2 Video 720x576 (16:9) 25.00fps 8500kbps
Аудио 1: Dolby AC3 48000Hz stereo 384 Kbps
Аудио 2: Dolby AC3 48000Hz stereo 192kbps
Subtitle: Rle

MediaInfo
General
Complete name : I:\Download\Q.Zagadka.zhenshiny.2011.P.DVD.ELEKTRI4KA\VIDEO_TS\VTS_01_2.VOB
Format : MPEG-PS
File size : 1 024 MiB
Duration : 14mn 53s
Overall bit rate : 9 619 Kbps

Video
ID : 224 (0xE0)
Format : MPEG Video
Format version : Version 2
Format profile : Main@Main
Format settings, BVOP : Yes
Format settings, Matrix : Custom
Format settings, GOP : M=3, N=15
Duration : 14mn 52s
Bit rate : 8 500 Kbps
Width : 720 pixels
Height : 576 pixels
Display aspect ratio : 16:9
Frame rate : 25.000 fps
Standard : PAL
Color space : YUV
Chroma subsampling : 4:2:0
Bit depth : 8 bits
Scan type : Interlaced
Scan order : Top Field First
Compression mode : Lossy
Bits/(Pixel*Frame) : 0.820
Stream size : 901 MiB (88%)

Audio #1
ID : 189 (0xBD)-128 (0x80)
Format : AC-3
Format/Info : Audio Coding 3
Mode extension : CM (complete main)
Muxing mode : DVD-Video
Duration : 14mn 53s
Bit rate mode : Constant
Bit rate : 384 Kbps
Channel(s) : 6 channels
Channel positions : Front: L C R, Side: L R, LFE
Sampling rate : 48.0 KHz
Bit depth : 16 bits
Compression mode : Lossy
Delay relative to video : -536ms
Stream size : 40.9 MiB (4%)

Audio #2
ID : 189 (0xBD)-129 (0x81)
Format : AC-3
Format/Info : Audio Coding 3
Mode extension : CM (complete main)
Muxing mode : DVD-Video
Duration : 14mn 53s
Bit rate mode : Constant
Bit rate : 192 Kbps
Channel(s) : 2 channels
Channel positions : Front: L R
Sampling rate : 48.0 KHz
Bit depth : 16 bits
Compression mode : Lossy
Delay relative to video : -504ms
Stream size : 20.4 MiB (2%)

Audio #3
ID : 189 (0xBD)-130 (0x82)
Format : AC-3
Format/Info : Audio Coding 3
Mode extension : CM (complete main)
Muxing mode : DVD-Video
Duration : 14mn 53s
Bit rate mode : Constant
Bit rate : 384 Kbps
Channel(s) : 6 channels
Channel positions : Front: L C R, Side: L R, LFE
Sampling rate : 48.0 KHz
Bit depth : 16 bits
Compression mode : Lossy
Delay relative to video : -536ms
Stream size : 40.9 MiB (4%)

Text
ID : 189 (0xBD)-32 (0x20)
Format : RLE
Format/Info : Run-length encoding
Muxing mode : DVD-Video
Duration : 14mn 49s
Delay relative to video : 1s 600ms

Menu


Свернуть
Скриншоты
Изображение
Изображение
Изображение
Изображение
Изображение
Свернуть
Не в сети
Профиль  
Начать новую темуОтветить на тему  [ 1 сообщение ] 
Вы не можете начинать темы
Вы не можете отвечать на сообщения
Вы не можете редактировать свои сообщения
Вы не можете удалять свои сообщения