Правила форума

Здесь находятся раздачи, на которых не было полного источника (сида) более месяца.
Вы можете вернуть релиз в соответствующий раздел, для этого напишите нам в специальной теме и встаньте на раздачу.
Новые релизы, повторяющие релизы в архиве, повторами не считаются.
Начать новую темуОтветить на тему  [ 1 сообщение ] 
Сообщения
 Добавлено: 2011-10-13 05:48
Top-releaser
Аватара пользователя
Стаж: 8 лет 7 месяцев
Сообщений: 1286
Спасибок: 3420
Лайков: 7
Изображение

Расплата / Blood Out


«Без жалости, без прикрытия...»

Год выпуска: 2011
Страна: США
Жанр: боевик
Продолжительность: 01:28:39
Перевод: Профессиональный (многоголосый, закадровый)[лицензия]

Режиссер: Джейсон Хьюит / Jason Hewitt
Сценарий: Джейсон Хьюит / Jason Hewitt, Джон О’Коннелл / John O'Connell
Продюсер: Джейсон Хьюит / Jason Hewitt, Карстен Х.В. Лоренц / Carsten H.W. Lorenz, Майкл Арата / Michael Arata, Фифти Сент / 50 Cent, Фредерико Лапенда / Frederico Lapenda
Оператор: Кристиан Херрера / Christian Herrera
Композитор: Джёрмэйн Стеголл / Jermaine Stegall

В ролях: Люк Госс (Michael Savion), Вэл Килмер (Arturo), Фифти Сент (Detective Hardwick), Винни Джонс (Zed), Тэмер Хассан (Elias), АннаЛинн МакКорд (Anya), Эд Куинн (Anthony), Райан Доноху (David Savion), Стефани Онор (Gloria), Сэм Медина (Squat), Шон Грант (Billy), Бобби Лэшли (Hector)

Описание: Помощнику шерифа Майклу Сэвиону не раз доводилось участвовать в опасных рейдах и проливать чужую кровь. Но однажды главари одной из местных банд жестоко убивают его брата. Когда равнодушные следователи объявляют дело закрытым за недостатком улик, Майкл решает восстановить справедливость самостоятельно. Его задача - не только покарать всех виновных в смерти брата, но и найти невесту погибшего, исчезнувшую в лабиринте темных улиц, где царят насилие и беспредел. Родная кровь взывает к мести, и от расплаты не уйти никому!

Релиз: Изображение Раздача: Изображение

kinopoisk.ru: 4.809 (316)


Качество: BDRip
Формат: Matroska
Видео: AVC; 1920x1080 (16:9); 8861 kbps; 23,976 fps; 0,178 bpp
Аудио №1: Russian; DTS; 754 kbps; CBR; 6 channels; 24 bit
Аудио №2: DTS; 1509 kbps; CBR; 6 channels; 24 bit

Субтитры:
MediaInfo
Общее
Уникальный идентификатор : 205533271172395387048708539662361812486 (0x9AA044A599F98F928FEE530F9DF9DE06)
Полное имя : E:\Видео\Blood.Out.2011.P.BDRip.1080p.ELEKTRI4KA.mkv
Формат : Matroska
Версия формата : Version 2
Размер файла : 7,03 Гбайт
Продолжительность : 1 ч. 28 м.
Общий поток : 11,4 Мбит/сек
Название фильма : Расплата / Blood Out (2011) .....:::ELEKTRI4KA:::.....
Дата кодирования : UTC 2011-10-12 19:12:35
Программа кодирования : mkvmerge v5.0.1 ('Es ist Sommer') built on Oct 9 2011 11:55:43
Библиотека кодирования : libebml v1.2.2 + libmatroska v1.3.0

Видео
Идентификатор : 1
Формат : AVC
Формат/Информация : Advanced Video Codec
Профиль формата : High@L4.1
Параметр CABAC формата : Да
Параметр ReFrames формата : 4 кадра
Идентификатор кодека : V_MPEG4/ISO/AVC
Продолжительность : 1 ч. 28 м.
Битрейт : 9085 Кбит/сек
Ширина : 1920 пикс.
Высота : 1080 пикс.
Соотношение сторон : 16:9
Частота кадров : 23,976 кадр/сек
Цветовое пространство : YUV
Подвыборка цветности : 4:2:0
Битовая глубина : 8 бит
Тип развёртки : Прогрессивная
Бит/(Пиксели*Кадры) : 0.183
Размер потока : 5,49 Гбайт (78%)
Заголовок : Blood.Out.2011.1080p.BluRay.x264.DTS-HDChina
Библиотека кодирования : x264 core 114 r1913 5fd3dce
Настройки программы : cabac=1 / ref=4 / deblock=1:-3:-3 / analyse=0x3:0x133 / me=umh / subme=10 / psy=1 / psy_rd=1.00:0.00 / mixed_ref=1 / me_range=64 / chroma_me=1 / trellis=2 / 8x8dct=1 / cqm=0 / deadzone=21,11 / fast_pskip=1 / chroma_qp_offset=-2 / threads=18 / sliced_threads=0 / nr=0 / decimate=0 / interlaced=0 / constrained_intra=0 / bframes=6 / b_pyramid=2 / b_adapt=2 / b_bias=0 / direct=3 / weightb=1 / open_gop=0 / weightp=2 / keyint=250 / keyint_min=23 / scenecut=40 / intra_refresh=0 / rc_lookahead=60 / rc=2pass / mbtree=1 / bitrate=9085 / ratetol=1.0 / qcomp=0.60 / qpmin=0 / qpmax=69 / qpstep=4 / cplxblur=20.0 / qblur=0.5 / vbv_maxrate=50000 / vbv_bufsize=50000 / nal_hrd=none / ip_ratio=1.50 / aq=1:1.00
Язык : English

Аудио #1
Идентификатор : 2
Формат : DTS
Формат/Информация : Digital Theater Systems
Идентификатор кодека : A_DTS
Продолжительность : 1 ч. 28 м.
Вид битрейта : Постоянный
Битрейт : 755 Кбит/сек
Каналы : 6 каналов
Расположение каналов : Front: L C R, Side: L R, LFE
Частота : 48,0 КГц
Битовая глубина : 24 бит
Метод сжатия : С потерями
Размер потока : 478 Мбайт (7%)
Заголовок : DTS 5.1 @ 755 kb/s [Russian MVO, R5]
Язык : Russian

Аудио #2
Идентификатор : 3
Формат : DTS
Формат/Информация : Digital Theater Systems
Идентификатор кодека : A_DTS
Продолжительность : 1 ч. 28 м.
Вид битрейта : Постоянный
Битрейт : 1510 Кбит/сек
Каналы : 6 каналов
Расположение каналов : Front: L C R, Side: L R, LFE
Частота : 48,0 КГц
Битовая глубина : 24 бит
Метод сжатия : С потерями
Размер потока : 957 Мбайт (13%)
Заголовок : DTS 5.1 @ 1510 kb/s [English]
Язык : English

Текст
Идентификатор : 4
Формат : UTF-8
Идентификатор кодека : S_TEXT/UTF8
Идентификатор кодека/Информация : UTF-8 Plain Text
Заголовок : English
Язык : English

Свернуть

Скриншоты
Изображение

Изображение

Изображение

Изображение
Свернуть
Не в сети
Профиль  
Начать новую темуОтветить на тему  [ 1 сообщение ] 
Вы не можете начинать темы
Вы не можете отвечать на сообщения
Вы не можете редактировать свои сообщения
Вы не можете удалять свои сообщения