Правила форума

Здесь находятся раздачи, на которых не было полного источника (сида) более месяца.
Вы можете вернуть релиз в соответствующий раздел, для этого напишите нам в специальной теме и встаньте на раздачу.
Новые релизы, повторяющие релизы в архиве, повторами не считаются.
Начать новую темуОтветить на тему  [ Сообщений: 3 ] 
Сообщения
 Добавлено: 2012-04-01 21:01
Книголюб
Аватара пользователя
Стаж: 7 лет 2 месяца
Сообщений: 2823
Спасибок: 48828
Лайков: 73
Разделитель
The Divide

Изображение


Год выпуска: 2011
Страна: США, Германия, Канада
Слоган: «To survive the end of the world you must first survive each other.»
Жанр: ужасы, фантастика, триллер
Продолжительность: 02:02:14
Перевод: Любительский (многоголосый закадровый)

Режиссёр: Ксавьер Генс
В ролях: Лорен Джерман, Майкл Бьен, Майло Вентимилья, Кортни Б. Вэнс, Эштон Холмс, Розанна Аркетт, Иван Гонзалез, Майкл Эклунд, Дженнифер Бланк
Описание: События фильма разворачиваются в подвале одного из зданий в Нью-Йорке, который стал своего рода спасательным бункером для восьмерых людей, когда город был разрушен в результате мощного взрыва неизвестного происхождения. Где-то в глубине подвала они видят человека в ОЗК и с оружием, который, похоже, объявил на них охоту.
Рейтинг MPAA: Рейтинг R (Подростки до 17 лет допускаются на фильм только в сопровождении одного из родителей)
Мировая премьера: 13 марта 2011
Изображение 6.133 483

Качество: BDRip 720p
Формат: MKV
Видео кодек: H.264
Аудио кодек: AC3 (Dolby Digital)
Видео: 4478 kb/s, 1280x544 23.976fps 0.268Bits/Pixel
Аудио #1: 48.0 KHz, 6 ch, 384 Kbps
MediaInfo
General
Unique ID : 197845925299492881837838541631113619047 (0x94D7BD3B9DE313CC8449A710C67B6667)
Complete name : D:\the.divide..mkv
Format : Matroska
Format version : Version 2
File size : 4.15 GiB
Duration : 2h 2mn
Overall bit rate : 4 860 Kbps
Encoded date : UTC 2012-03-30 23:12:11
Writing application : mkvmerge v5.4.0 ('Piper') built on Mar 10 2012 13:34:39
Writing library : libebml v1.2.3 + libmatroska v1.3.0

Video
ID : 1
Format : AVC
Format/Info : Advanced Video Codec
Format profile : High@L4.1
Format settings, CABAC : Yes
Format settings, ReFrames : 5 frames
Muxing mode : Header stripping
Codec ID : V_MPEG4/ISO/AVC
Duration : 2h 2mn
Bit rate : 4 478 Kbps
Width : 1 280 pixels
Height : 544 pixels
Display aspect ratio : 2.35:1
Frame rate : 23.976 fps
Color space : YUV
Chroma subsampling : 4:2:0
Bit depth : 8 bits
Scan type : Progressive
Bits/(Pixel*Frame) : 0.268
Stream size : 3.74 GiB (90%)
Writing library : x264 core 122 r2184 5c85e0a
Encoding settings : cabac=1 / ref=5 / deblock=1:0:0 / analyse=0x3:0x133 / me=umh / subme=7 / psy=1 / psy_rd=1.00:0.00 / mixed_ref=1 / me_range=16 / chroma_me=1 / trellis=1 / 8x8dct=1 / cqm=0 / deadzone=21,11 / fast_pskip=0 / chroma_qp_offset=-2 / threads=12 / sliced_threads=0 / nr=0 / decimate=1 / interlaced=0 / bluray_compat=0 / constrained_intra=0 / bframes=3 / b_pyramid=2 / b_adapt=1 / b_bias=0 / direct=1 / weightb=1 / open_gop=0 / weightp=2 / keyint=250 / keyint_min=23 / scenecut=40 / intra_refresh=0 / rc_lookahead=40 / rc=2pass / mbtree=1 / bitrate=4478 / ratetol=1.0 / qcomp=0.60 / qpmin=0 / qpmax=69 / qpstep=4 / cplxblur=20.0 / qblur=0.5 / ip_ratio=1.40 / aq=1:1.00
Language : English
Default : Yes
Forced : No

Audio
ID : 2
Format : AC-3
Format/Info : Audio Coding 3
Mode extension : CM (complete main)
Muxing mode : Header stripping
Codec ID : A_AC3
Duration : 2h 2mn
Bit rate mode : Constant
Bit rate : 384 Kbps
Channel(s) : 6 channels
Channel positions : Front: L C R, Side: L R, LFE
Sampling rate : 48.0 KHz
Bit depth : 16 bits
Compression mode : Lossy
Stream size : 336 MiB (8%)
Default : Yes
Forced : No
Свернуть


Скриншоты
Изображение
Изображение
Изображение
Изображение
Свернуть
Не в сети
Профиль  
 Добавлено: 2012-04-05 12:01 (спустя 3 дня)
Стаж: 6 лет 11 месяцев
Сообщений: 17
очень,очень,очень,очень...слабенький фильм
Не в сети
Профиль  
 Добавлено: 2012-04-22 14:48 (спустя 17 дней)
Аватара пользователя
Стаж: 8 лет 3 месяца
Возраст: 43
Сообщений: 3290
Спасибок: 21012
Лайков: 3
viewtopic.php?f=1750&t=463493
_________________
Изображение
Не в сети
Профиль  
Начать новую темуОтветить на тему  [ Сообщений: 3 ] 
Вы не можете начинать темы
Вы не можете отвечать на сообщения
Вы не можете редактировать свои сообщения
Вы не можете удалять свои сообщения