Правила форума

Здесь находятся раздачи, на которых не было полного источника (сида) более месяца.
Вы можете вернуть релиз в соответствующий раздел, для этого напишите нам в специальной теме и встаньте на раздачу.
Новые релизы, повторяющие релизы в архиве, повторами не считаются.
Начать новую темуОтветить на тему  [ 1 сообщение ] 
Сообщения
 Добавлено: 2012-03-05 21:18
Инквизитор
Аватара пользователя
Стаж: 8 лет 8 месяцев
Сообщений: 3753
Спасибок: 28359
Лайков: 9
Изображение

Развод Надера и Симин / Jodaeiye Nader az Simin


Год выпуска: 2011
Страна: Иран
Слоган: «Ugly truth, sweet lies»
Жанр: драма
Продолжительность: 02:02:58
Перевод: Оригинальный, Профессиональный (многоголосый, закадровый)
Режиссер: Асгар Фархади
Сценарий: Асгар Фархади
Продюсер: Асгар Фархади, Негар Эскандарфар
Оператор: Махмуд Калари
Композитор: Саттар Ораки
В ролях: Пейман Моади, Лейла Хатами, Саре Байат, Шахаб Хоссейни, Сарина Фархади, Мерила , Зареи, Али-Асгар Шахбази, Бабак Карими, Кимиа Хуссейни, Ширин Язданбакхш
Бюджет: $800 000
Сборы в США: $3 727 000
Сборы в России: $23 466
Сборы в мире: $12 827 000
Описание: Супруги Надер и Симин решили уехать из Ирана в поисках лучшей жизни. Но в один момент Надер все-таки решает остаться рядом со своим отцом, страдающим болезнью Альцгеймера. Симин подает на развод в надежде уехать с их 11-летней дочерью, но судебное решение оказывается не в ее пользу. Дочь, тем временем, надеется, что мама одумается и вернется.
Изображение
MPAA: Изображение
Мировая премьера: 15 февраля 2011
Релиз на DVD: 23 февраля 2012, «Новый Диск»
Релиз, раздача группы: Изображение, Изображение
Качество: BDRip, 720p
Формат: Matroska
Видео: AVC; 1280x692 (1.850); 6403 Kbps; 23,976 fps; 0,302 bit/pixel
Аудио №1: Russian; AC3; 448 Kbps; CBR; 6 ch
Аудио №2: Iranian; DTS; 1509 Kbps; CBR; 3 ch; 24 bit

Субтитры №1: Russian
Субтитры №2: English

M.I.
Общее
Уникальный идентификатор                 : 186514054957331994649167248223235165828 (0x8C514CE3AE6AF28682BCFD2930034E84)
Полное имя                               : E:\Фильмы\Jodaeiye.Nader.az.Simin.2011.720p.BluRay.Rus.Ira.HDCLUB.mkv
Формат                                   : Matroska
Версия формата                           : Version 2
Размер файла                             : 7,33 Гбайт
Продолжительность                        : 2 ч. 2 м.
Общий поток                              : 8531 Кбит/сек
Название фильма                          : Jodaeiye Nader az Simin (2011) - Release for HDCLUB
Дата кодирования                         : UTC 2012-03-04 15:24:26
Программа кодирования                    : mkvmerge v4.4.0 ('Die Wiederkehr') built on Oct 31 2010 21:52:48
Библиотека кодирования                   : libebml v1.0.0 + libmatroska v1.0.0

Видео
Идентификатор                            : 1
Формат                                   : AVC
Формат/Информация                        : Advanced Video Codec
Профиль формата                          : High@L4.1
Параметр CABAC формата                   : Да
Параметр ReFrames формата                : 9 кадров
Идентификатор кодека                     : V_MPEG4/ISO/AVC
Продолжительность                        : 2 ч. 2 м.
Битрейт                                  : 6403 Кбит/сек
Ширина                                   : 1280 пикселей
Высота                                   : 692 пикселя
Соотношение сторон                       : 1,850
Частота кадров                           : 23,976 кадра/сек
Цветовое пространство                    : YUV
Субдискретизация насыщенности            : 4:2:0
Битовая глубина                          : 8 бит
Тип развёртки                            : Прогрессивная
Бит/(Пиксели*Кадры)                      : 0.302
Размер потока                            : 5,50 Гбайт (75%)
Заголовок                                : Release for HDCLUB
Библиотека кодирования                   : x264 core 120 r2164 da19765
Настройки программы                      : cabac=1 / ref=9 / deblock=1:-3:-3 / analyse=0x3:0x113 / me=tesa / subme=11 / psy=1 / psy_rd=1.05:0.10 / mixed_ref=1 / me_range=24 / chroma_me=1 / trellis=2 / 8x8dct=1 / cqm=0 / deadzone=21,11 / fast_pskip=0 / chroma_qp_offset=-3 / threads=6 / sliced_threads=0 / nr=0 / decimate=0 / interlaced=0 / bluray_compat=0 / constrained_intra=0 / bframes=7 / b_pyramid=2 / b_adapt=2 / b_bias=0 / direct=3 / weightb=1 / open_gop=0 / weightp=2 / keyint=250 / keyint_min=23 / scenecut=40 / intra_refresh=0 / rc_lookahead=60 / rc=crf / mbtree=0 / crf=17.0 / qcomp=0.60 / qpmin=0 / qpmax=69 / qpstep=4 / vbv_maxrate=38000 / vbv_bufsize=30000 / crf_max=0.0 / nal_hrd=none / ip_ratio=1.40 / pb_ratio=1.30 / aq=1:0.70
Язык                                     : English
Default                                  : Да
Forced                                   : Нет
Основные цвета                           : BT.709-5, BT.1361, IEC 61966-2-4, SMPTE RP177
Характеристики трансфера                 : BT.709-5, BT.1361
Коэффициенты матрицы                     : BT.709-5, BT.1361, IEC 61966-2-4 709, SMPTE RP177

Аудио #1
Идентификатор                            : 2
Формат                                   : AC-3
Формат/Информация                        : Audio Coding 3
Расширение режима                        : CM (complete main)
Идентификатор кодека                     : A_AC3
Продолжительность                        : 2 ч. 2 м.
Вид битрейта                             : Постоянный
Битрейт                                  : 448 Кбит/сек
Каналы                                   : 6 каналов
Расположение каналов                     : Front: L C R, Side: L R, LFE
Частота                                  : 48,0 КГц
Битовая глубина                          : 16 бит
Метод сжатия                             : С потерями
Размер потока                            : 394 Мбайт (5%)
Заголовок                                : AC3 5.1 @ 448 kbps Многоголосый закадровый, R5
Язык                                     : Russian
Default                                  : Да
Forced                                   : Да

Аудио #2
Идентификатор                            : 3
Формат                                   : DTS
Формат/Информация                        : Digital Theater Systems
Идентификатор кодека                     : A_DTS
Продолжительность                        : 2 ч. 2 м.
Вид битрейта                             : Постоянный
Битрейт                                  : 1510 Кбит/сек
Каналы                                   : 3 канала
Расположение каналов                     : Front: L C R
Частота                                  : 48,0 КГц
Битовая глубина                          : 24 бит
Метод сжатия                             : С потерями
Размер потока                            : 1,30 Гбайт (18%)
Заголовок                                : DTS 3.0@1536 kbps Оригинал
Язык                                     : ira
Default                                  : Нет
Forced                                   : Нет

Текст #1
Идентификатор                            : 4
Формат                                   : UTF-8
Идентификатор кодека                     : S_TEXT/UTF8
Идентификатор кодека/Информация          : UTF-8 Plain Text
Заголовок                                : Субтитры (full), R5
Язык                                     : Russian
Default                                  : Нет
Forced                                   : Нет

Текст #2
Идентификатор                            : 5
Формат                                   : UTF-8
Идентификатор кодека                     : S_TEXT/UTF8
Идентификатор кодека/Информация          : UTF-8 Plain Text
Заголовок                                : Субтитры (full)
Язык                                     : English
Default                                  : Нет
Forced                                   : Нет

Меню
00:00:00.000                             : en:Chapter 01
00:09:41.414                             : en:Chapter 02
00:19:13.569                             : en:Chapter 03
00:28:08.103                             : en:Chapter 04
00:38:54.749                             : en:Chapter 05
00:48:54.265                             : en:Chapter 06
00:59:20.098                             : en:Chapter 07
01:10:09.247                             : en:Chapter 08
01:20:16.854                             : en:Chapter 09
01:27:57.814                             : en:Chapter 10
01:41:09.814                             : en:Chapter 11
01:52:26.448                             : en:Chapter 12
Свернуть
Скриншоты

Изображение
Изображение
Изображение
Свернуть

Изображение
Не в сети
Профиль  
Начать новую темуОтветить на тему  [ 1 сообщение ] 
Вы не можете начинать темы
Вы не можете отвечать на сообщения
Вы не можете редактировать свои сообщения
Вы не можете удалять свои сообщения