Правила форума

Здесь находятся раздачи, на которых не было полного источника (сида) более месяца.
Вы можете вернуть релиз в соответствующий раздел, для этого напишите нам в специальной теме и встаньте на раздачу.
Новые релизы, повторяющие релизы в архиве, повторами не считаются.
Начать новую темуОтветить на тему  [ 1 сообщение ] 
Сообщения
 Добавлено: 2010-12-19 01:16
Top-releaser
Аватара пользователя
Стаж: 6 лет 11 месяцев
Возраст: 45
Сообщений: 299
Спасибок: 4106
Лайков: 3
Реальные кабаны / Wild Hogs
«Четыре крутых мужика, восемь колес, одна татуировка и тысяча неприятностей»

Изображение

Год выпуска: 2007
Страна: США
Жанр: боевик, комедия, приключения
Продолжительность: 01:39:38
Перевод: Профессиональный (полное дублирование) + (Гланц, Королева)

Режиссер: Уолт Бекер / Walt Becker
Сценарий: Брэд Коуплэнд / Brad Copeland
Продюсер: Энсон Даунс / Anson Downes, Линда Фавила / Linda Favila, Тодд Либерман / Todd Lieberman, Брайан Роббинс / Brian Robbins, Дэрис Роллинз / Darice Rollins
Оператор: Робби Гринберг / Robbie Greenberg
Композитор: Тедди Кастелуччи / Teddy Castellucci

В ролях: Тим Аллен (Doug Madsen), Джон Траволта (Woody Stevens), Мартин Лоуренс (Bobby Davis), Уильям Х. Мэйси (Dudley Frank), Рэй Лиотта (Jack), Мариса Томей (Maggie), Кевин Дюран (Red), М. К. Гейни (Murdock), Джилл Хеннесси (Kelly Madsen), Доминик Джейнс (Billy Madsen), Тичина Арнольд (Karen Davis), Стивен Тоболовски (Charley)
Описание: Четверо благоустроенных приятелей из зажиточного пригорода решают на время отвлечься от житейских проблем и вспомнить былые раздольные деньки, когда все четверо мечтали о байкерской свободе. Еженедельные встречи за бокалом безалкогольного пива в местном мотоклубе уже поднаскучили, и друзья решают рвануть в путешествие через все Штаты, с севера на юг, до самого Нью-Мексико.
Остается только зашвырнуть подальше надоевшие мобильники, надеть косухи, повязать банданы, и назваться «Реальными кабанами» - настоящими искателями приключений. А приключений будет немало. Ночевки под открытым небом, купание в горячем источнике, разведение костра с помощью собственной палатки, близкие контакты третьей степени с провинциальным шерифом и столкновение с оравой неподдельных, бородатых и нечесаных байкеров - зловещей бандой «Дель Фуэгос» под предводительством атамана Джека.
Пройти мимо байкеров-домоседов забияки из «Дель Фуэгос» просто так не могут, потому что они - банда. Схватка в лучших традициях классических вестернов неминуема, и еще неизвестно, что окажется сильнее - обветренные кулаки байкеров-южан, или сила духа Реальных Кабанов…

Изображение
Сборы в США: $168 273 550
Сборы в России: $2 194 700
Сборы в мире: $253 625 427
Мировая премьера: 27 февраля 2007
Релиз на DVD: 7 декабря 2010, «Уолт Дисней Компани СНГ»
Изображение

MPAA: Изображение - Детям до 13 лет просмотр не желателен
Качество: BDRip, 720p
Формат: Matroska
Видео: AVC; 1280x544 (2.35:1); 4629 Kbps; 23,976 fps; 0,277 bpp
Аудио №1: Russian; AC3; 448 Kbps; CBR; 6 ch [Профессиональный (полное дублирование)]
Аудио №2: Russian; DTS; 754 Kbps; CBR; 6 ch; 24 bit [Гланц, Королева]
Аудио №3: Ukrainian; AC3; 192 Kbps; CBR; 2 ch
Аудио №4: English; DTS; 754 Kbps; CBR; 6 ch; 24 bit
Субтитры №1: Russian
Субтитры №2: English

Раздача группы:Изображение

MediaInfo

General
Complete name : D:\Torrents\Реальные кабаны (Wild Hogs) [2007, BDRip].mkv
Format : Matroska
File size : 4.81 GiB
Duration : 1h 39mn
Overall bit rate : 6 916 Kbps
Encoded date : UTC 2010-08-27 16:42:14
Writing application : mkvmerge v2.9.8 ('C'est le bon') built on Aug 13 2009 12:49:06
Writing library : libebml v0.7.7 + libmatroska v0.8.1

Video
ID : 1
Format : AVC
Format/Info : Advanced Video Codec
Format profile : High@L4.1
Format settings, CABAC : Yes
Format settings, ReFrames : 9 frames
Muxing mode : Container profile=Unknown@4.1
Codec ID : V_MPEG4/ISO/AVC
Duration : 1h 39mn
Bit rate : 4 765 Kbps
Width : 1 280 pixels
Height : 544 pixels
Display aspect ratio : 2.35:1
Frame rate : 23.976 fps
Color space : YUV
Chroma subsampling : 4:2:0
Bit depth : 8 bits
Scan type : Progressive
Bits/(Pixel*Frame) : 0.285
Stream size : 3.22 GiB (67%)
Writing library : x264 core 84 r1400M 20fa784
Encoding settings : cabac=1 / ref=9 / deblock=1:-3:-3 / analyse=0x3:0x133 / me=hex / subme=10 / psy=1 / psy_rd=1.0:0.0 / mixed_ref=1 / me_range=16 / chroma_me=1 / trellis=2 / 8x8dct=1 / cqm=0 / deadzone=21,11 / fast_pskip=0 / chroma_qp_offset=-2 / threads=3 / sliced_threads=0 / nr=0 / decimate=0 / mbaff=0 / constrained_intra=0 / bframes=6 / b_pyramid=0 / b_adapt=2 / b_bias=0 / direct=3 / wpredb=1 / wpredp=2 / keyint=250 / keyint_min=25 / scenecut=40 / intra_refresh=0 / rc_lookahead=40 / rc=2pass / mbtree=1 / bitrate=4765 / ratetol=1.0 / qcomp=0.60 / qpmin=10 / qpmax=51 / qpstep=4 / cplxblur=20.0 / qblur=0.5 / ip_ratio=1.40 / aq=1:0.80 / pulldown=0 / nal_hrd=0
Language : English

Audio #1
ID : 2
Format : AC-3
Format/Info : Audio Coding 3
Mode extension : CM (complete main)
Codec ID : A_AC3
Duration : 1h 39mn
Bit rate mode : Constant
Bit rate : 448 Kbps
Channel(s) : 6 channels
Channel positions : Front: L C R, Side: L R, LFE
Sampling rate : 48.0 KHz
Bit depth : 16 bits
Stream size : 319 MiB (6%)
Title : Дубляж
Language : Russian

Audio #2
ID : 3
Format : DTS
Format/Info : Digital Theater Systems
Codec ID : A_DTS
Duration : 1h 39mn
Bit rate mode : Constant
Bit rate : 755 Kbps
Channel(s) : 6 channels
Channel positions : Front: L C R, Side: L R, LFE
Sampling rate : 48.0 KHz
Bit depth : 24 bits
Stream size : 538 MiB (11%)
Title : Гланц и Королева
Language : Russian

Audio #3
ID : 4
Format : AC-3
Format/Info : Audio Coding 3
Mode extension : CM (complete main)
Codec ID : A_AC3
Duration : 1h 39mn
Bit rate mode : Constant
Bit rate : 192 Kbps
Channel(s) : 2 channels
Channel positions : Front: L R
Sampling rate : 48.0 KHz
Bit depth : 16 bits
Video delay : 2ms
Stream size : 137 MiB (3%)
Title : Украинский
Language : Ukrainian

Audio #4
ID : 5
Format : DTS
Format/Info : Digital Theater Systems
Codec ID : A_DTS
Duration : 1h 39mn
Bit rate mode : Constant
Bit rate : 755 Kbps
Channel(s) : 6 channels
Channel positions : Front: L C R, Side: L R, LFE
Sampling rate : 48.0 KHz
Bit depth : 24 bits
Stream size : 538 MiB (11%)
Title : Оригинал
Language : English

Text #1
ID : 6
Format : UTF-8
Codec ID : S_TEXT/UTF8
Codec ID/Info : UTF-8 Plain Text
Language : Russian

Text #2
ID : 7
Format : UTF-8
Codec ID : S_TEXT/UTF8
Codec ID/Info : UTF-8 Plain Text
Language : English
Свернуть
Изображение
"Скриншоты"
Изображение
Изображение
Изображение
Изображение
Изображение
Изображение
Свернуть
"Знаете ли Вы, что..."
  • В оригинальном сценарии фильма герои имели дело со знаменитой реально существующей группировкой байкеров Hells Angels, а также был использован её официальный логотип. После того как Hells Angels подали в суд на киностудию Disney, название группировки в фильме было изменено на вымышленное Del Fuegos.
  • Хотя по сценарию четвёрка друзей проживает в предместьях Цинциннати, штат Огайо, в реальности ни одна из сцен фильма не была снята в этом городе и его окрестностях.
  • В одной из начальных сцен, когда Дадли теряет контроль над своим мотоциклом после парковки, по находящимся в отдалении дорожным знакам легко различить, что съёмки происходят в Альбукерке, штат Нью-Мексико.
  • В фильме присутствует небольшое камео Пола Тейтула старшего и Пола Тейтула младшего, основателей компании Orange County Choppers по производству нестандартных дорожных мотоциклов, которая стала особенно известной после выхода реалити-шоу «American Chopper: The Series» (2003). Два знаменитых создателя мотоциклов появляются в любимом баре «Реальных кабанов» (его владелец и один из клиентов на заднем плане).
  • Армейский зелёный байк Джека также несёт логотип компании Orange County Choppers.
  • Когда Джек (Рэй Лиотта) завязывает стычку с «Реальными кабанами» в баре байкеров, он пьёт диетическое легкое пиво с низким процентом алкоголя, что абсолютно не увязывается с образом «крутого парня».
  • Компания Harley Davidson предоставила мотоциклы для четырех главных героев, причём каждый получил свою модель, Дадли - XL1200C Sportster Custom, Бобби - FXSTS Springer Softail, Даг - Black Fatboy с хромовым передним колесом и Вуди - Screaming Eagle Fatboy.
  • Сцена, в которой герой Питера Фонды говорит «Реальным кабанам» избавиться от своих часов, представляет собой своего рода отсылку к классической картине «Беспечный ездок» (1969), в которой также снимался актёр. В её начале персонаж Питера Фонды Уайтт выбрасывает прочь свои часы перед дорожным путешествием.
Свернуть
Не в сети
Профиль  
Начать новую темуОтветить на тему  [ 1 сообщение ] 
Вы не можете начинать темы
Вы не можете отвечать на сообщения
Вы не можете редактировать свои сообщения
Вы не можете удалять свои сообщения