Правила форума

Здесь находятся раздачи, на которых не было полного источника (сида) более месяца.
Вы можете вернуть релиз в соответствующий раздел, для этого напишите нам в специальной теме и встаньте на раздачу.
Новые релизы, повторяющие релизы в архиве, повторами не считаются.
Начать новую темуОтветить на тему  [ Сообщений: 2 ] 
Сообщения
 Добавлено: 2013-04-06 16:34
Аватара пользователя
Стаж: 5 лет 4 месяца
Возраст: 26
Сообщений: 1658
Спасибок: 45805
Лайков: 69
Реальные парни / Stand Up Guys


«Жгут как в последний раз! Таких уже не делают»


Изображение
Год выпуска: 2012
Страна: Изображение
Жанр: Драма, комедия, криминал
Продолжительность: 01:34:58
Перевод: Профессиональный (Дубляж) (Лицензия)

Режиссёр: Фишер Стивенс

Сценарий: Ноа Хэйдл

Продюсер: Сидни Киммел, Гари Лучези, Том Розенберг

Оператор: Майкл Грэйди

Композитор: Лайл Уоркмэн

Xудожник: Мехер Ахмад, Томас Т. Тейлор, Линдсей МакКей

В ролях: Аль Пачино, Кристофер Уокен , Алан Аркин, Джулианна Маргулис, Марк Марголис, Люси Панч, Эддисон Тимлин, Ванесса Ферлито, Кэтрин Уинник, Билли Барр.
Описание: История строится вокруг двух уже немолодых преступников, один из которых получил задание убить близкого друга. Столь непростая ситуация требует времени на обдумывание, и киллеры решают вместе с приятелем изрядно побуянить (включая посещение борделя, угон машин и бегство от полиции), прежде чем будет принято окончательное решение..
Изображение


Сборы в США: $3 310 031
[/b]
Мировая премьера:11 октября 2012.
Российский прокат:31 января 2013, «Top Film Distribution»

Релиз на DVD:5 марта 2013, «Lizard Cinema Trade».
Релиз на Blu-Ray:5 марта 2013, «Lizard Cinema Trade».

Качество: BDRip (1080p)
Формат: MKV
Видео: MPEG-4 AVC, 8999 Кбит/с, 1920x800
Аудио: Русский (DTS, 6 ch, 1536 Кбит/с), английский (AC3, 6 ch, 640 Кбит/с)
Субтитры: Украинские




MediaInfo
Общее
Уникальный идентификатор : 228076365767617713738769615942711672467 (0xAB95E905BE4E6998AFC5EF0A49B67E93)
Полное имя : D:\Фильмы и сериалы\Stand.Up.Guys.BDRip.1080p.mkv
Формат : Matroska
Версия формата : Version 2
Размер файла : 7,26 Гбайт
Продолжительность : 1 ч. 34 м.
Общий поток : 10,9 Мбит/сек
Название фильма : VarMkn
Дата кодирования : UTC 2013-04-06 06:38:04
Программа кодирования : mkvmerge v5.4.0 ('Piper') built on Mar 10 2012 13:34:39
Библиотека кодирования : libebml v1.2.3 + libmatroska v1.3.0

Видео
Идентификатор : 1
Формат : AVC
Формат/Информация : Advanced Video Codec
Профиль формата : High@L4.1
Параметр CABAC формата : Да
Параметр ReFrames формата : 5 кадров
Идентификатор кодека : V_MPEG4/ISO/AVC
Продолжительность : 1 ч. 34 м.
Битрейт : 8999 Кбит/сек
Ширина : 1920 пикселей
Высота : 800 пикселей
Соотношение сторон : 2,40:1
Режим частоты кадров : Постоянный
Частота кадров : 23,976 кадра/сек
Цветовое пространство : YUV
Субдискретизация насыщенности : 4:2:0
Битовая глубина : 8 бит
Тип развёртки : Прогрессивная
Бит/(Пиксели*Кадры) : 0.244
Размер потока : 5,69 Гбайт (78%)
Библиотека кодирования : x264 core 130 r2273 b3065e6
Настройки программы : cabac=1 / ref=5 / deblock=1:0:0 / analyse=0x3:0x113 / me=umh / subme=7 / psy=1 / psy_rd=1.00:0.00 / mixed_ref=1 / me_range=16 / chroma_me=1 / trellis=1 / 8x8dct=1 / cqm=0 / deadzone=21,11 / fast_pskip=1 / chroma_qp_offset=-2 / threads=18 / lookahead_threads=3 / sliced_threads=0 / nr=0 / decimate=1 / interlaced=0 / bluray_compat=0 / constrained_intra=0 / bframes=3 / b_pyramid=2 / b_adapt=1 / b_bias=0 / direct=3 / weightb=1 / open_gop=0 / weightp=2 / keyint=240 / keyint_min=23 / scenecut=40 / intra_refresh=0 / rc_lookahead=50 / rc=abr / mbtree=1 / bitrate=8999 / ratetol=1.0 / qcomp=0.60 / qpmin=0 / qpmax=69 / qpstep=4 / ip_ratio=1.40 / aq=1:1.00
Язык : English
Default : Да
Forced : Нет

Аудио #1
Идентификатор : 2
Формат : DTS
Формат/Информация : Digital Theater Systems
Режим : 16
Параметр Endianness формата : Big
Идентификатор кодека : A_DTS
Продолжительность : 1 ч. 34 м.
Вид битрейта : Постоянный
Битрейт : 1509 Кбит/сек
Каналы : 6 каналов
Расположение каналов : Front: L C R, Side: L R, LFE
Частота : 48,0 КГц
Битовая глубина : 16 бит
Метод сжатия : С потерями
Размер потока : 1,00 Гбайт (14%)
Заголовок : DTS 5.1 @ 1536 kbps - Dub, BD RUS
Язык : Russian
Default : Нет
Forced : Да

Аудио #2
Идентификатор : 3
Формат : AC-3
Формат/Информация : Audio Coding 3
Расширение режима : CM (complete main)
Параметр Endianness формата : Big
Идентификатор кодека : A_AC3
Продолжительность : 1 ч. 34 м.
Вид битрейта : Постоянный
Битрейт : 640 Кбит/сек
Каналы : 6 каналов
Расположение каналов : Front: L C R, Side: L R, LFE
Частота : 48,0 КГц
Битовая глубина : 16 бит
Метод сжатия : С потерями
Размер потока : 435 Мбайт (6%)
Заголовок : DD 5.1 @ 640 kbps
Язык : English
Default : Нет
Forced : Нет

Меню
00:00:00.000 : en:00:00:00.000
00:04:51.332 : en:00:04:51.332
00:08:54.283 : en:00:08:54.283
00:15:26.926 : en:00:15:26.926
00:23:22.651 : en:00:23:22.651
00:28:52.856 : en:00:28:52.856
00:32:13.056 : en:00:32:13.056
00:40:56.745 : en:00:40:56.745
00:47:59.042 : en:00:47:59.042
00:52:39.906 : en:00:52:39.906
00:59:48.668 : en:00:59:48.668
01:04:36.289 : en:01:04:36.289
01:11:03.717 : en:01:11:03.717
01:19:53.163 : en:01:19:53.163
01:24:09.461 : en:01:24:09.461
01:29:34.369 : en:01:29:34.369

Свернуть

Трейлер
Свернуть

Скриншоты
Изображение
Изображение
Изображение
Свернуть
_________________
S.T.A.L.K.E.R.: Lost Alpha
Не в сети
Профиль  
 Добавлено: 2013-04-07 03:53 (спустя 11 часов)
Руководитель релиз-группы
Аватара пользователя
Стаж: 7 лет 4 месяца
Возраст: 31
Сообщений: 3407
Спасибок: 46729
Лайков: 5
viewtopic.php?f=1750&t=505085
Не в сети
Профиль  
Начать новую темуОтветить на тему  [ Сообщений: 2 ] 
Вы не можете начинать темы
Вы не можете отвечать на сообщения
Вы не можете редактировать свои сообщения
Вы не можете удалять свои сообщения