Правила форума

Здесь находятся раздачи, на которых не было полного источника (сида) более месяца.
Вы можете вернуть релиз в соответствующий раздел, для этого напишите нам в специальной теме и встаньте на раздачу.
Новые релизы, повторяющие релизы в архиве, повторами не считаются.
Начать новую темуОтветить на тему  [ Сообщений: 6 ] 
Сообщения
 Добавлено: 2013-12-17 19:45
Аватара пользователя
Стаж: 3 года 6 месяцев
Сообщений: 175
Спасибок: 4257
Лайков: 29
Риддик / Riddick

«Лучший способ отомстить - остаться в живых»

Изображение


Год выпуска: 2013
Страна: США (One Race Productions, Radar Pictures Inc.)
Жанр: Фантастика, боевик, триллер
Продолжительность: 01:58:39
Перевод: Профессиональный (дубляж)(iTunes)

Режиссёр: Дэвид Туи
В ролях: Вин Дизель, Хорди Молья, Мэтью Нэйбл, Кэти Сакхофф, Дэйв Батиста, Букем Вудбайн, Рауль Трухильо, Конрад Пла, Дэнни Бланко, Карл Урбан, Ноа Дэнби, Нил Напье, Нолан Фанк, Андреас Апергис, Кери Хилсон, Шарли Мари Дюпон, Ян Герсте, Антуанетта Никпрелаж, Александра Соколовская
Описание: Преданный своими и брошенный умирать на пустынной планете, Риддик сражается с хищниками за жизнь и становится сильнее и опаснее себя прежнего. Открывшие на него охоту галактические наемники оказываются пешками в грандиозном плане отмщения. С врагами, возникающими на его пути тогда, когда это нужно самому Риддику, он начинает поход во имя мести, чтобы в конечном счете вернуться на родную Фурию и спасти ее от уничтожения.
Бюджет: $38 000 000
Изображение

Качество: WEB-DL (720p)
Формат: MKV
Видео кодек: AVC
Аудио кодек: AC3 (Dolby Digital)
Видео: MPEG-4 AVC, 3913 Кбит/с, 1280x532, 23.976 fps
Аудио #1: Русский: AC3, 6 ch, 384 Кбит/с, 48.0 KHz
Аудио #2: Английский: AC3, 6 ch, 384 Кбит/с, 48.0 KHz
Скриншоты
Изображение
Изображение
Изображение
Изображение
Изображение
Свернуть

MediaInfo
General
Unique ID : 202314859549161350119164239755226929647 (0x98346CB3E5D70BC9B7D96331A38859EF)
Complete name : F:\ФИЛЬМЫ\Riddik.2013.WEB-DL.720p.mkv
Format : Matroska
Format version : Version 2
File size : 3.96 GiB
Duration : 1h 58mn
Overall bit rate : 4 776 Kbps
Encoded date : UTC 2013-12-17 06:46:36
Writing application : mkvmerge v5.8.0 ('No Sleep / Pillow') built on Sep 2 2012 15:37:04
Writing library : libebml v1.2.3 + libmatroska v1.3.0

Video
ID : 1
Format : AVC
Format/Info : Advanced Video Codec
Format profile : Main@L3.1
Format settings, CABAC : No
Format settings, ReFrames : 2 frames
Codec ID : V_MPEG4/ISO/AVC
Duration : 1h 58mn
Bit rate : 3 913 Kbps
Width : 1 280 pixels
Height : 532 pixels
Display aspect ratio : 2.40:1
Frame rate mode : Constant
Frame rate : 23.976 fps
Color space : YUV
Chroma subsampling : 4:2:0
Bit depth : 8 bits
Scan type : Progressive
Bits/(Pixel*Frame) : 0.240
Stream size : 3.24 GiB (82%)
Language : English
Default : Yes
Forced : No
Color primaries : BT.709
Transfer characteristics : BT.709
Matrix coefficients : BT.709

Audio #1
ID : 2
Format : AC-3
Format/Info : Audio Coding 3
Mode extension : CM (complete main)
Format settings, Endianness : Big
Codec ID : A_AC3
Duration : 1h 58mn
Bit rate mode : Constant
Bit rate : 384 Kbps
Channel(s) : 6 channels
Channel positions : Front: L C R, Side: L R, LFE
Sampling rate : 48.0 KHz
Bit depth : 16 bits
Compression mode : Lossy
Stream size : 326 MiB (8%)
Language : Russian
Default : Yes
Forced : No

Audio #2
ID : 3
Format : AC-3
Format/Info : Audio Coding 3
Mode extension : CM (complete main)
Format settings, Endianness : Big
Codec ID : A_AC3
Duration : 1h 58mn
Bit rate mode : Constant
Bit rate : 384 Kbps
Channel(s) : 6 channels
Channel positions : Front: L C R, Side: L R, LFE
Sampling rate : 48.0 KHz
Bit depth : 16 bits
Compression mode : Lossy
Stream size : 326 MiB (8%)
Language : English
Default : No
Forced : No

Menu
00:00:00.000 : en:1
00:05:37.000 : en:2
00:12:10.000 : en:3
00:18:20.000 : en:4
00:22:05.000 : en:5
00:26:20.000 : en:6
00:32:12.000 : en:7
00:38:29.000 : en:8
00:42:49.000 : en:9
00:50:28.000 : en:10
00:55:25.000 : en:11
01:01:38.000 : en:12
01:09:32.000 : en:13
01:14:07.000 : en:14
01:20:57.000 : en:15
01:25:35.000 : en:16
01:33:41.000 : en:17
01:39:41.000 : en:18
01:47:55.000 : en:19
01:54:46.000 : en:20
Свернуть
Не в сети
Профиль  
 Добавлено: 2013-12-18 00:19 (спустя 4 часа)
Аватара пользователя
Стаж: 8 лет 8 месяцев
Сообщений: 885
Спасибок: 9815
Можно сэмпл?
Не в сети
Профиль  
 Добавлено: 2013-12-18 19:26 (спустя 19 часов)
Модератор
Аватара пользователя
Стаж: 9 лет
Сообщений: 3446
Спасибок: 1556
Лайков: 77
чет вот такие рипы прям бесят, разговоры еле слышно, но как выстрел так все, как турбина самолета в квартире.
_________________
Пока тут пусто.
Не в сети
Профиль  
 Добавлено: 2013-12-19 21:10 (спустя 1 день 1 час)
Аватара пользователя
Стаж: 3 года 6 месяцев
Сообщений: 175
Спасибок: 4257
Лайков: 29
Сэмпл: http://multi-up.com/933880
Не в сети
Профиль  
 Добавлено: 2013-12-22 14:57 (спустя 2 дня 17 часов)
Аватара пользователя
Стаж: 9 лет
Сообщений: 539
Спасибок: 1518
Сэмпл без речи
Не в сети
Профиль  
 Добавлено: 2013-12-22 19:49 (спустя 4 часа)
Аватара пользователя
Стаж: 3 года 6 месяцев
Сообщений: 175
Спасибок: 4257
Лайков: 29
Сэмпл по просьбе: http://multi-up.com/934768
Не в сети
Профиль  
Начать новую темуОтветить на тему  [ Сообщений: 6 ] 
Вы не можете начинать темы
Вы не можете отвечать на сообщения
Вы не можете редактировать свои сообщения
Вы не можете удалять свои сообщения