Правила форума

Здесь находятся раздачи, на которых не было полного источника (сида) более месяца.
Вы можете вернуть релиз в соответствующий раздел, для этого напишите нам в специальной теме и встаньте на раздачу.
Новые релизы, повторяющие релизы в архиве, повторами не считаются.
Начать новую темуОтветить на тему  [ Сообщений: 4 ] 
Сообщения
 Добавлено: 2011-12-11 12:52
Top-releaser
Аватара пользователя
Стаж: 8 лет 7 месяцев
Сообщений: 1286
Спасибок: 3420
Лайков: 7
Рыжий пес / Red Dog

Изображение
Год выпуска: 2011
Страна: Австралия
Жанр: драма, комедия, семейный
Продолжительность: 01:32:20
Перевод: Субтитры, Любительский (двухголосый)

Режиссер: Kriv Stenders
Сценарий: Луи де Берньер, Дэниэл Таплитц
Продюсер: Джули Райан, Нельсон Восс, Су Армстронг, Аарон Райдер, Марк Ван Буурен
Оператор: Джеффри Холл
Композитор: Цезари Скубижевски

В ролях: Джош Лукас (John Grant), Рэйчел Тейлор (Nancy), Ноа Тейлор (Jack Collins), Киша Касл-Хьюз (Rose), Люк Форд (Thomas), Билл Хантер, Джон Батчелор (Peeto), Тиффани Линдэлл-Найт (Patsy), Имон Фэррен (Dave), Артур Энджел (Vanno), Роэн Никол (Jocko), Loene Carmen (Maureen)

Описание: Сюжет фильма основан на реальной истории о собаке Рыжем Псе, которая давно потеряв хозяина, вливается в жизнь людей из австралийской глубинки.

Релиз: Изображение Раздача: Изображение

Изображение

Бюджет: AUD 8 500 000
Мировая премьера: 4 августа 2011


Качество: BDRip
Формат: Matroska
Видео: AVC; 1280x544 (2.35:1); 5271 kbps; 23,976 fps; 0,316 bit/pixel
Аудио №1: Russian; AC3; 448 kbps; CBR; 6 channels; 16 bit
Аудио №2: English; DTS; 1509 kbps; CBR; 6 channels; 16 bit

Субтитры №1: Russian
Субтитры №2: English

MediaInfo
Общее
Уникальный идентификатор : 217995485882949757330145226428645003779 (0xA40067453E5546FEB32B3852566A5203)
Полное имя : E:\Видео\Red.Dog.2011.L2.BDRip.720p.[R.G.KINOvNINO].mkv
Формат : Matroska
Версия формата : Version 2
Размер файла : 4,66 Гбайт
Продолжительность : 1 ч. 32 м.
Общий поток : 7229 Кбит/сек
Название фильма : UNIONGANG.TV -TVB-
Дата кодирования : UTC 2011-12-10 20:07:33
Программа кодирования : mkvmerge v5.0.1 ('Es ist Sommer') built on Oct 9 2011 11:55:43
Библиотека кодирования : libebml v1.2.2 + libmatroska v1.3.0

Видео
Идентификатор : 1
Формат : AVC
Формат/Информация : Advanced Video Codec
Профиль формата : High@L4.1
Параметр CABAC формата : Да
Параметр ReFrames формата : 5 кадров
Идентификатор кодека : V_MPEG4/ISO/AVC
Продолжительность : 1 ч. 32 м.
Битрейт : 5271 Кбит/сек
Ширина : 1280 пикселей
Высота : 544 пикселя
Соотношение сторон : 2,35:1
Частота кадров : 23,976 кадра/сек
Цветовое пространство : YUV
Субдискретизация насыщенности : 4:2:0
Битовая глубина : 8 бит
Тип развёртки : Прогрессивная
Бит/(Пиксели*Кадры) : 0.316
Размер потока : 3,31 Гбайт (71%)
Библиотека кодирования : x264 core 119 r2106 07efeb4
Настройки программы : cabac=1 / ref=5 / deblock=1:0:0 / analyse=0x3:0x133 / me=umh / subme=8 / psy=1 / psy_rd=1.00:0.00 / mixed_ref=1 / me_range=16 / chroma_me=1 / trellis=1 / 8x8dct=1 / cqm=0 / deadzone=21,11 / fast_pskip=0 / chroma_qp_offset=-2 / threads=12 / sliced_threads=0 / nr=0 / decimate=1 / interlaced=0 / bluray_compat=0 / constrained_intra=0 / bframes=3 / b_pyramid=2 / b_adapt=1 / b_bias=0 / direct=1 / weightb=1 / open_gop=0 / weightp=2 / keyint=250 / keyint_min=25 / scenecut=40 / intra_refresh=0 / rc_lookahead=40 / rc=2pass / mbtree=1 / bitrate=5271 / ratetol=1.0 / qcomp=0.60 / qpmin=0 / qpmax=69 / qpstep=4 / cplxblur=20.0 / qblur=0.5 / ip_ratio=1.40 / aq=1:1.00
Язык : English
Default : Да
Forced : Нет

Аудио #1
Идентификатор : 2
Формат : AC-3
Формат/Информация : Audio Coding 3
Расширение режима : CM (complete main)
Идентификатор кодека : A_AC3
Продолжительность : 1 ч. 32 м.
Вид битрейта : Постоянный
Битрейт : 448 Кбит/сек
Каналы : 6 каналов
Расположение каналов : Front: L C R, Side: L R, LFE
Частота : 48,0 КГц
Битовая глубина : 16 бит
Метод сжатия : С потерями
Размер потока : 296 Мбайт (6%)
Заголовок : MVO
Язык : Russian
Default : Да
Forced : Нет

Аудио #2
Идентификатор : 3
Формат : DTS
Формат/Информация : Digital Theater Systems
Идентификатор кодека : A_DTS
Продолжительность : 1 ч. 32 м.
Вид битрейта : Постоянный
Битрейт : 1510 Кбит/сек
Каналы : 6 каналов
Расположение каналов : Front: L C R, Side: L R, LFE
Частота : 48,0 КГц
Битовая глубина : 16 бит
Метод сжатия : С потерями
Размер потока : 997 Мбайт (21%)
Язык : English
Default : Нет
Forced : Нет

Текст #1
Идентификатор : 4
Формат : UTF-8
Идентификатор кодека : S_TEXT/UTF8
Идентификатор кодека/Информация : UTF-8 Plain Text
Язык : Russian
Default : Нет
Forced : Нет

Текст #2
Идентификатор : 5
Формат : UTF-8
Идентификатор кодека : S_TEXT/UTF8
Идентификатор кодека/Информация : UTF-8 Plain Text
Язык : English
Default : Нет
Forced : Нет

Свернуть

Скриншоты

Изображение

Изображение

Изображение

Изображение

Свернуть
Не в сети
Профиль  
 Добавлено: 2012-01-09 14:09 (спустя 29 дней)
Top-releaser
Аватара пользователя
Стаж: 8 лет 7 месяцев
Сообщений: 1286
Спасибок: 3420
Лайков: 7
Хороший добрый фильм. Странно, что так мало народа его скачало. Рекомендую к просмотру.
Не в сети
Профиль  
 Добавлено: 2012-02-11 13:00 (спустя 1 месяц 1 день)
Top-releaser
Аватара пользователя
Стаж: 8 лет 7 месяцев
Сообщений: 1286
Спасибок: 3420
Лайков: 7
Ап :)
Не в сети
Профиль  
 Добавлено: 2012-02-28 14:01 (спустя 17 дней)
Аватара пользователя
Стаж: 8 лет 3 месяца
Возраст: 43
Сообщений: 3290
Спасибок: 21012
Лайков: 3
viewtopic.php?f=1743&t=455980
_________________
Изображение
Не в сети
Профиль  
Начать новую темуОтветить на тему  [ Сообщений: 4 ] 
Вы не можете начинать темы
Вы не можете отвечать на сообщения
Вы не можете редактировать свои сообщения
Вы не можете удалять свои сообщения
cron