Правила форума

Здесь находятся раздачи, на которых не было полного источника (сида) более месяца.
Вы можете вернуть релиз в соответствующий раздел, для этого напишите нам в специальной теме и встаньте на раздачу.
Новые релизы, повторяющие релизы в архиве, повторами не считаются.
Начать новую темуОтветить на тему  [ Сообщений: 3 ] 
Сообщения
 Добавлено: 2012-02-28 14:06
Top-releaser
Аватара пользователя
Стаж: 7 лет 3 месяца
Возраст: 25
Сообщений: 1036
Спасибок: 2694
Лайков: 9
Рыжий пес
Red Dog


Изображение


Год выхода: 2011
Страна: Австралия

Жанр: драма, комедия, семейный
Продолжительность: 01:32:19
Перевод: Профессиональное (многоголосое)

Режиссер: Kriv Stenders
Сценарий: Луи де Берньер, Дэниэл Таплитц
Продюсер: Джули Райан, Нельсон Восс, Су Армстронг
Оператор: Джеффри Холл
Композитор: Цезари Скубижевски

В ролях: Джош Лукас, Рэйчел Тейлор, Ноа Тейлор, Киша Касл-Хьюз, Люк Форд, Билл Хантер, Джон Батчелор, Тиффани Линдэлл-Найт, Имон Фэррен, Артур Энджел

Описание: Сюжет фильма основан на реальной истории о собаке Рыжем Псе, которая давно потеряв хозяина, вливается в жизнь людей из австралийской глубинки.

Изображение

Изображение

Качество BDRip 1080p R5
Формат: Mkv

Видео: MPEG4 Video (H264) 1920x816 23.98fps 10.4 Mbps
Аудио 1: Dolby AC3 48000Hz 6ch 192 Kbps
Аудио 2: Dts 48000Hz 6ch 1 510 Kbps
Subtitle: Utf-8

Изображение

MediaInfo
General
Unique ID : 194319479857743546789961129894885805429 (0x9230920C85C207B4AE488CBA77214D75)
Complete name : I:\Download\Red.Dog.2011.P.BDRip.1080p.Uniongang.tv.mkv
Format : Matroska
Format version : Version 2
File size : 7.77 GiB
Duration : 1h 32mn
Overall bit rate : 12.1 Mbps
Movie name : Red Dog.BDRip.1080p.Uniongang.tv
Encoded date : UTC 2012-02-27 22:40:58
Writing application : mkvmerge v4.0.0 ('The Stars were mine') сборка от Jun 6 2010 16:18:42
Writing library : libebml v1.0.0 + libmatroska v1.0.0

Video
ID : 1
Format : AVC
Format/Info : Advanced Video Codec
Format profile : High@L4.1
Format settings, CABAC : Yes
Format settings, ReFrames : 5 frames
Codec ID : V_MPEG4/ISO/AVC
Duration : 1h 32mn
Bit rate : 10.4 Mbps
Width : 1 920 pixels
Height : 816 pixels
Display aspect ratio : 2.35:1
Frame rate : 23.976 fps
Color space : YUV
Chroma subsampling : 4:2:0
Bit depth : 8 bits
Scan type : Progressive
Bits/(Pixel*Frame) : 0.276
Stream size : 6.52 GiB (84%)
Title : Red Dog.BDRip.1080p.Uniongang.tv
Writing library : x264 core 119 r2106 07efeb4
Encoding settings : cabac=1 / ref=5 / deblock=1:0:0 / analyse=0x3:0x133 / me=umh / subme=8 / psy=1 / psy_rd=1.00:0.00 / mixed_ref=1 / me_range=16 / chroma_me=1 / trellis=1 / 8x8dct=1 / cqm=0 / deadzone=21,11 / fast_pskip=0 / chroma_qp_offset=-2 / threads=12 / sliced_threads=0 / nr=0 / decimate=1 / interlaced=0 / bluray_compat=0 / constrained_intra=0 / bframes=3 / b_pyramid=2 / b_adapt=1 / b_bias=0 / direct=1 / weightb=1 / open_gop=0 / weightp=2 / keyint=250 / keyint_min=25 / scenecut=40 / intra_refresh=0 / rc_lookahead=40 / rc=2pass / mbtree=1 / bitrate=10351 / ratetol=1.0 / qcomp=0.60 / qpmin=0 / qpmax=69 / qpstep=4 / cplxblur=20.0 / qblur=0.5 / ip_ratio=1.40 / aq=1:1.00
Language : English
Default : No
Forced : No

Audio #1
ID : 2
Format : AC-3
Format/Info : Audio Coding 3
Mode extension : CM (complete main)
Codec ID : A_AC3
Duration : 1h 32mn
Bit rate mode : Constant
Bit rate : 192 Kbps
Channel(s) : 6 channels
Channel positions : Front: L C R, Side: L R, LFE
Sampling rate : 48.0 KHz
Bit depth : 16 bits
Compression mode : Lossy
Delay relative to video : 3s 200ms
Stream size : 127 MiB (2%)
Default : Yes
Forced : No

Audio #2
ID : 3
Format : DTS
Format/Info : Digital Theater Systems
Codec ID : A_DTS
Duration : 1h 32mn
Bit rate mode : Constant
Bit rate : 1 510 Kbps
Channel(s) : 6 channels
Channel positions : Front: L C R, Side: L R, LFE
Sampling rate : 48.0 KHz
Bit depth : 16 bits
Compression mode : Lossy
Delay relative to video : 11ms
Stream size : 997 MiB (13%)
Default : No
Forced : No

Text #1
ID : 4
Format : UTF-8
Codec ID : S_TEXT/UTF8
Codec ID/Info : UTF-8 Plain Text
Language : Russian
Default : No
Forced : No

Text #2
ID : 5
Format : UTF-8
Codec ID : S_TEXT/UTF8
Codec ID/Info : UTF-8 Plain Text
Language : English
Default : No
Forced : No


Свернуть
Скриншоты
Изображение
Изображение
Изображение
Изображение
Изображение
Свернуть


Последний раз редактировалось FoTP 2012-03-04 08:38, всего редактировалось 1 раз.
Не в сети
Профиль  
 Добавлено: 2012-02-28 18:28 (спустя 4 часа)
Стаж: 5 лет 2 месяца
Сообщений: 98
спасибо!!!
Не в сети
Профиль  
 Добавлено: 2012-03-02 21:39 (спустя 3 дня)
Аватара пользователя
Стаж: 8 лет 10 месяцев
Сообщений: 2

FoTP:


Dolphin Tale

шутите?
Не в сети
Профиль  
Начать новую темуОтветить на тему  [ Сообщений: 3 ] 
Вы не можете начинать темы
Вы не можете отвечать на сообщения
Вы не можете редактировать свои сообщения
Вы не можете удалять свои сообщения