Правила форума

Здесь находятся раздачи, на которых не было полного источника (сида) более месяца.
Вы можете вернуть релиз в соответствующий раздел, для этого напишите нам в специальной теме и встаньте на раздачу.
Новые релизы, повторяющие релизы в архиве, повторами не считаются.
Начать новую темуОтветить на тему  [ Сообщений: 6 ] 
Сообщения
 Добавлено: 2014-05-06 04:58
DVD Release Group
Аватара пользователя
Стаж: 7 лет 1 месяц
Сообщений: 3549
Спасибок: 247076
Лайков: 1018
РобоКоп

RoboCop


Изображение


Год выпуска: 2014
Страна: США
Жанр: Фантастика, боевик, криминал
Продолжительность: 01:48:18
Перевод: Профессиональный (полное дублирование)
Субтитры: Нет
Режиссер: Жозе Падилья
В ролях: Юэль Киннаман, Гари Олдман, Майкл Китон, Сэмюэл Л. Джексон, Эбби Корниш, Джеки Эрл Хейли, Майкл К. Уильямс, Дженнифер Или, Джей Барушель, Марианн Жан-Батист
Описание: 2028 год. Международный конгломерат ОмниКорп лидирует в производстве робототехники. Благодаря разработкам компании Америка успешно побеждает в войнах по всему миру. Но теперь пришло время применить технологию на американской земле. Алекс Мерфи — любящий муж, отец и отличный полицейский, оберегающий порядок в Детройте, получает на службе смертельные ранения. Специалисты ОмниКорпа, используя новейшие разработки, сохраняют ему жизнь. Алекс возвращается на службу в родной город не только с новыми сверхспособностями, но и с проблемами, с которыми не сталкивался ни один живой человек.
Изображение Изображение
Качество: WEB-DL 1080p
Формат: MKV
Видео кодек: H.264
Аудио кодек: AC3
Видео: 1920x816 23.98fps 6000kbps
Аудио:
Аудио Rus: 48kHz 6ch 384kbps
Аудио Eng: 48kHz 2ch 384kbps
"MediaInfo"
Format : Matroska
Format version : Version 4 / Version 2
File size : 5.55 GiB
Duration : 1h 57mn
Overall bit rate : 6 769 Kbps
Movie name : RARBG.COM - RoboCop.2014.1080p.WEB-DL.H264-RARBG
Encoded date : UTC 2014-05-05 19:52:17
Writing application : mkvmerge v6.5.0 ('Isn't she lovely') built on Oct 20 2013 12:50:05
Writing library : libebml v1.3.0 + libmatroska v1.4.1

Video
ID : 1
Format : AVC
Format/Info : Advanced Video Codec
Format profile : High@L4.1
Format settings, CABAC : No
Format settings, ReFrames : 4 frames
Codec ID : V_MPEG4/ISO/AVC
Duration : 1h 57mn
Bit rate : 6 000 Kbps
Width : 1 920 pixels
Height : 816 pixels
Display aspect ratio : 2.35:1
Original display aspect ratio : 2.40:1
Frame rate mode : Constant
Frame rate : 23.976 fps
Color space : YUV
Chroma subsampling : 4:2:0
Bit depth : 8 bits
Scan type : Progressive
Bits/(Pixel*Frame) : 0.160
Stream size : 4.81 GiB (87%)
Writing library : x264 core 130 r2273 b3065e6
Encoding settings : cabac=0 / ref=3 / deblock=0:-1:-1 / analyse=0x3:0x113 / me=hex / subme=7 / psy=1 / psy_rd=1.00:0.15 / mixed_ref=1 / me_range=16 / chroma_me=1 / trellis=1 / 8x8dct=1 / cqm=0 / deadzone=21,11 / fast_pskip=1 / chroma_qp_offset=-3 / threads=3 / lookahead_threads=1 / sliced_threads=0 / nr=0 / decimate=1 / interlaced=0 / bluray_compat=0 / constrained_intra=0 / bframes=3 / b_pyramid=2 / b_adapt=1 / b_bias=0 / direct=1 / weightb=0 / open_gop=0 / weightp=0 / keyint=240 / keyint_min=24 / scenecut=40 / intra_refresh=0 / rc_lookahead=40 / rc=2pass / mbtree=1 / bitrate=6000 / ratetol=1.0 / qcomp=0.60 / qpmin=0 / qpmax=69 / qpstep=4 / cplxblur=20.0 / qblur=0.5 / vbv_maxrate=62500 / vbv_bufsize=78125 / nal_hrd=none / ip_ratio=1.40 / aq=1:1.00
Language : English
Default : Yes
Forced : No
Color primaries : BT.709
Transfer characteristics : BT.709
Matrix coefficients : BT.709

Audio #1
ID : 2
Format : AC-3
Format/Info : Audio Coding 3
Mode extension : CM (complete main)
Format settings, Endianness : Big
Codec ID : A_AC3
Duration : 1h 57mn
Bit rate mode : Constant
Bit rate : 384 Kbps
Channel(s) : 6 channels
Channel positions : Front: L C R, Side: L R, LFE
Sampling rate : 48.0 KHz
Bit depth : 16 bits
Compression mode : Lossy
Delay relative to video : -83ms
Stream size : 323 MiB (6%)
Language : Russian
Default : Yes
Forced : No

Audio #2
ID : 3
Format : AC-3
Format/Info : Audio Coding 3
Mode extension : CM (complete main)
Format settings, Endianness : Big
Codec ID : A_AC3
Duration : 1h 57mn
Bit rate mode : Constant
Bit rate : 384 Kbps
Channel(s) : 2 channels
Channel positions : Front: L R
Sampling rate : 48.0 KHz
Bit depth : 16 bits
Compression mode : Lossy
Delay relative to video : -83ms
Stream size : 323 MiB (6%)
Language : English
Default : No
Forced : No

Menu
00:00:00.000 : en:Chapter 1
00:14:19.000 : en:Chapter 2
00:21:54.000 : en:Chapter 3
00:32:50.000 : en:Chapter 4
00:43:05.000 : en:Chapter 5
00:57:22.000 : en:Chapter 6
01:12:44.000 : en:Chapter 7
01:26:37.000 : en:Chapter 8
01:41:32.000 : en:Chapter 9
01:50:14.000 : en:Chapter 10
Свернуть

"Скриншоты"
Изображение
Изображение
Изображение
Изображение
Свернуть
 Sanek123 нравится это.
Не в сети
Профиль  
 Добавлено: 2014-05-06 14:40 (спустя 9 часов)
Аватара пользователя
Стаж: 8 лет 7 месяцев
Сообщений: 22
Как перевод смотреть можно?
Не в сети
Профиль  
 Добавлено: 2014-05-08 16:55 (спустя 2 дня 2 часа)
Аватара пользователя
Стаж: 9 лет 1 месяц
Сообщений: 2152
Спасибок: 778
Лайков: 14
По качеству похоже на растянутый 720p. Это точно 1080p?
_________________
PSN
Изображение
Свернуть
Изображение
Не в сети
Профиль  
 Добавлено: 2014-05-08 21:45 (спустя 4 часа)
Аватара пользователя
Стаж: 4 года
Сообщений: 25
Лайков: 4
Видео рывками идет, шляпа а не качество!
Не в сети
Профиль  
 Добавлено: 2014-05-10 20:47 (спустя 1 день 23 часа)
Аватара пользователя
Стаж: 8 лет 11 месяцев
Возраст: 29
Сообщений: 473
Спасибок: 2973
Лайков: 1
Фильм полнейший отстой, и как ремейк, и просто как фильм. Старому робокопу в подметки не годится!
 DJoKeR777 нравится это.
Не в сети
Профиль  
 Добавлено: 2014-05-12 02:25 (спустя 1 день 5 часов)
Аватара пользователя
Стаж: 8 лет 11 месяцев
Сообщений: 138
Спасибок: 95
Лайков: 3
чот не очень
даже для обычного боевичка экшон не дотягивает
Не в сети
Профиль  
Начать новую темуОтветить на тему  [ Сообщений: 6 ] 
Вы не можете начинать темы
Вы не можете отвечать на сообщения
Вы не можете редактировать свои сообщения
Вы не можете удалять свои сообщения