Правила форума

Здесь находятся раздачи, на которых не было полного источника (сида) более месяца.
Вы можете вернуть релиз в соответствующий раздел, для этого напишите нам в специальной теме и встаньте на раздачу.
Новые релизы, повторяющие релизы в архиве, повторами не считаются.
Начать новую темуОтветить на тему  [ Сообщений: 2 ] 
Сообщения
 Добавлено: 2012-07-15 19:00
Инквизитор
Аватара пользователя
Стаж: 8 лет 8 месяцев
Сообщений: 3753
Спасибок: 28359
Лайков: 9
[font=Georgia][img=right]http://i3.imageban.ru/out/2012/07/15/9439e175889ca9adab17c29e00a07ff9.jpg[/img]
[align=center][size=200][color=#000000][b]Рок-звезда / Rock Star[/b][/color][/size][/align]

[size=100][color=#000000][b]Год выпуска: [/b][/color][color=darkred][b]2001[/b][/color]
[color=#000000][b]Страна: [/b]США[/color]
[color=#000000][b]Слоган: [/b][/color][b][color=darkorange]«The story of a wannabe who got to be.»[/color][/b]
[color=#000000][b]Жанр: [/b]драма, комедия, музыка[/color]
[color=#000000][b]Продолжительность: [/b]01:46:01[/color]
[color=#000000][b]Перевод: [/b][/color][b][color=darkgreen]Оригинальный, Профессиональный (полное дублирование), Авторский (Визгунов Сергей)[/color][/b]
[hr]
[color=#000000][b]Режиссер: [/b]Стивен Херек[/color]
[color=#000000][b]Сценарий: [/b]Джон Стокуэлл[/color]
[color=#000000][b]Продюсер: [/b]Тоби Джаффе, Роберт Лоуренс, Джордж Клуни[/color]
[color=#000000][b]Оператор: [/b]Юли Штайгер[/color]
[color=#000000][b]Композитор: [/b]Тревор Рэбин[/color]
[color=#000000][b]В ролях: [/b]Марк Уолберг, Дженнифер Энистон, Джейсон Флеминг, Тимоти Олифэнт, Тимоти Спэлл, Доминик Уэст, Джейсон Бонэм, Джефф Пилсон, Зэкк Уайлд, Блас Элиас, Ник Катаниз, Браан Вандер Арк[/color]
[hr]
[color=#000000][b]Бюджет: [/b][/color][color=darkgreen]$57 000 000[/color]
[color=#000000][b]Сборы в США: [/b][/color][color=darkgreen]$17 008 282[/color]
[color=#000000][b]Сборы в мире: [/b][/color][color=darkgreen]$19 334 145[/color]
[hr]
[b][color=#006699]Описание: [/color][/b][color=#000000]Днем Крис Коул занимается починкой копировальной техники. По ночам он - подражает рок-группе «Steel Dragon» самой крутой в мире «тяжелого металла». Неожиданно ему представилась удивительная возможность: стать новым солистом настоящего «Steel Dragon»!
В одночасье он, никому не известный парнишка из маленького городка, становится супер-звездой. В одночасье он, и его менеджер/подружка Эмили погружаются в мир безумства, которое трудно себе представить.[/color]
[hr]
[url=http://www.kinopoisk.ru/level/1/film/1956][img]http://i1.imageban.ru/out/2012/07/15/5a011233be6910ede8182eea75ab0054.png[/img][/url]
[b][color=#006699]MPAA[/color][/b]: [url=http://s.kinopoisk.ru/level/38/film/1956/rn/R/][img][/img][/url]
[hr]
[color=#000000][b]Мировая премьера: [/b]4 сентября 2001[/color]
[hr]
[b]Релиз, раздача группы:[/b] [img]http://hdclub.org/dox/sitebutton_tracker.hdclub.com.ua1.gif[/img], [img]http://i4.imageban.ru/out/2012/02/23/3ffa894fc2628b944bc4cf613ca70de4.gif[/img][hr]
[color=#000000][b]Качество: [/b][/color][color=darkred][b]HDTV[/b][/color]
[color=#000000][b]Формат: [/b][/color][color=#000000]MPEG-TS[/color]
[color=#000000][b]Видео: [/b]MPEG-2 Video; 1920x1080 (16:9); 16877 Kbps; 29,970 fps; Interlaced (Top Field First); 0,272 bit/pixel[/color]
[color=#000000][b]Аудио №1: [/b]Russian; AC3; 384 Kbps; CBR; 6 ch
[b]Аудио №2: [/b]Russian; AC3; 384 Kbps; CBR; 6 ch
[b]Аудио №3: [/b]Russian; AC3; 192 Kbps; CBR; 2 ch
[b]Аудио №4: [/b]English; AC3; 384 Kbps; CBR; 6 ch[/color]
[color=#000000][b]Субтитры №1: [/b]Russian
[b]Субтитры №2: [/b]English
[b]Субтитры №3: [/b]
[b]Субтитры №4: [/b][/color]
[hr]
[color=#000000][b][spoiler="Знаете ли Вы, что..."][/b][/color][list]
[*]В основу сюжета положена реальная история Тима «Ripper» Оуэнса и группы «Judas Priest».[/list][/spoiler]
[spoiler=M.I.][code]
Общее
Идентификатор : 1 (0x1)
Полное имя : E:\Фильмы\Rock.Star.2001.1080i.HDTV.3xRus.Eng.HDCLUB.ts
Формат : MPEG-TS
Размер файла : 14,5 Гбайт
Продолжительность : 1 ч. 46 м.
Режим общего битрейта : Переменный
Общий поток : 19,6 Мбит/сек
Максимальный общий битрейт : 35,5 Мбит/сек

Видео
Идентификатор : 4113 (0x1011)
Идентификатор меню : 1 (0x1)
Формат : MPEG Video
Версия формата : Version 2
Профиль формата : Main@High
Параметр BVOP формата : Да
Параметр матрицы формата : Выборочная
Параметр GOP формата : M=3, N=15
Идентификатор кодека : 2
Продолжительность : 1 ч. 46 м.
Вид битрейта : Переменный
Битрейт : 17,3 Мбит/сек
Максимальный битрейт : 65,0 Мбит/сек
Ширина : 1920 пикселей
Высота : 1080 пикселей
Соотношение сторон : 16:9
Частота кадров : 29,970 кадров/сек
Цветовое пространство : YUV
Субдискретизация насыщенности : 4:2:0
Битовая глубина : 8 бит
Тип развёртки : Чересстрочная
Порядок развёртки : Верхнее поле первое
Метод сжатия : С потерями
Бит/(Пиксели*Кадры) : 0.278
Размер потока : 12,8 Гбайт (88%)

Аудио #1
Идентификатор : 4352 (0x1100)
Идентификатор меню : 1 (0x1)
Формат : AC-3
Формат/Информация : Audio Coding 3
Расширение режима : CM (complete main)
Идентификатор кодека : 129
Продолжительность : 1 ч. 46 м.
Вид битрейта : Постоянный
Битрейт : 384 Кбит/сек
Каналы : 6 каналов
Расположение каналов : Front: L C R, Side: L R, LFE
Частота : 48,0 КГц
Битовая глубина : 16 бит
Метод сжатия : С потерями
Задержка видео : -67 мс.
Размер потока : 291 Мбайт (2%)
Язык : Russian

Аудио #2
Идентификатор : 4353 (0x1101)
Идентификатор меню : 1 (0x1)
Формат : AC-3
Формат/Информация : Audio Coding 3
Расширение режима : CM (complete main)
Идентификатор кодека : 129
Продолжительность : 1 ч. 46 м.
Вид битрейта : Постоянный
Битрейт : 384 Кбит/сек
Каналы : 6 каналов
Расположение каналов : Front: L C R, Side: L R, LFE
Частота : 48,0 КГц
Битовая глубина : 16 бит
Метод сжатия : С потерями
Задержка видео : -67 мс.
Размер потока : 291 Мбайт (2%)
Язык : Russian

Аудио #3
Идентификатор : 4354 (0x1102)
Идентификатор меню : 1 (0x1)
Формат : AC-3
Формат/Информация : Audio Coding 3
Расширение режима : CM (complete main)
Идентификатор кодека : 129
Продолжительность : 1 ч. 46 м.
Вид битрейта : Постоянный
Битрейт : 192 Кбит/сек
Каналы : 2 канала
Расположение каналов : Front: L R
Частота : 48,0 КГц
Битовая глубина : 16 бит
Метод сжатия : С потерями
Задержка видео : -67 мс.
Размер потока : 146 Мбайт (1%)
Язык : Russian

Аудио #4
Идентификатор : 4355 (0x1103)
Идентификатор меню : 1 (0x1)
Формат : AC-3
Формат/Информация : Audio Coding 3
Расширение режима : CM (complete main)
Идентификатор кодека : 129
Продолжительность : 1 ч. 46 м.
Вид битрейта : Постоянный
Битрейт : 384 Кбит/сек
Каналы : 6 каналов
Расположение каналов : Front: L C R, Side: L R, LFE
Частота : 48,0 КГц
Битовая глубина : 16 бит
Метод сжатия : С потерями
Задержка видео : -67 мс.
Размер потока : 291 Мбайт (2%)
Язык : English

Текст #1
Идентификатор : 4113 (0x1011)-608-1
Идентификатор меню : 1 (0x1)
Формат : EIA-608
Режим смешивания : A/53 / DTVCC Transport
Режим смешивания, доп. информация : Muxed in Video #1
Продолжительность : 1 ч. 46 м.
Вид битрейта : Постоянный
Размер потока : 0,00 байт (0%)

Текст #2
Идентификатор : 4113 (0x1011)-1
Идентификатор меню : 1 (0x1)
Формат : EIA-708
Режим смешивания : A/53 / DTVCC Transport
Режим смешивания, доп. информация : Muxed in Video #1
Продолжительность : 1 ч. 46 м.
Вид битрейта : Постоянный
Размер потока : 0,00 байт (0%
[/code][/spoiler]
[color=#000000][b][spoiler=Скриншоты][/b][/color][align=center]
[img]http://48.imagebam.com/download/Ec17iE5_DiAmtnaLVR3xYA/20030/200296687/1.png[/img]
[img]http://56.imagebam.com/download/cwcPbbLwnBqfB2G5Hz3S4A/20030/200296707/2.png[/img]
[img]http://55.imagebam.com/download/o6-JR9o0BaqmvlR15KiIxA/20030/200296719/3.png[/img]
[img]http://55.imagebam.com/download/3PEljDQErdyICkyHBI0pMg/20030/200296730/4.png[/img]
[img]http://57.imagebam.com/download/9Z7-4U3ebEKQ_KkeY-aQUQ/20030/200296742/5.png[/img]
[img]http://54.imagebam.com/download/o4VSel3tjhp2pQvheKGqzQ/20030/200296766/6.png[/img]
[img]http://53.imagebam.com/download/tiqXmRLHpNNkLaYFkDC8Zg/20030/200296778/7.png[/img]
[img]http://48.imagebam.com/download/qRyIfurdQJxaVBouCnjnlw/20030/200296792/8.png[/img]
[/align][/spoiler][/size][/font]
[url=http://nnportal.org/][img][/img][/url]


Последний раз редактировалось Биг 2013-10-12 10:00, всего редактировалось 3 раз(а).
Не в сети
Профиль  
 Добавлено: 2012-07-15 19:32 (спустя 32 минуты)
Стаж: 7 лет 7 месяцев
Сообщений: 10
я этот фильм смотрел по телеку) правда,очень давно(
но фильм реально обалденный!! советую всем !!!особенно рокерам \m/ :men:
Не в сети
Профиль  
Начать новую темуОтветить на тему  [ Сообщений: 2 ] 
Вы не можете начинать темы
Вы не можете отвечать на сообщения
Вы не можете редактировать свои сообщения
Вы не можете удалять свои сообщения