Правила форума

Здесь находятся раздачи, на которых не было полного источника (сида) более месяца.
Вы можете вернуть релиз в соответствующий раздел, для этого напишите нам в специальной теме и встаньте на раздачу.
Новые релизы, повторяющие релизы в архиве, повторами не считаются.
Начать новую темуОтветить на тему  [ Сообщений: 4 ] 
Сообщения
 Добавлено: 2011-03-19 20:59
Модератор
Аватара пользователя
Стаж: 8 лет 1 месяц
Возраст: 20
Сообщений: 32130
Спасибок: 98565
Лайков: 80
S.W.A.T.: Огненная буря / S.W.A.T.: Firefight

Изображение
Год выпуска: 2011
Страна: Изображение США
Жанр: боевик, триллер, криминал
Продолжительность: 01:28:38
Перевод: Профессиональный (многоголосый, закадровый) [лицензия]
Режиссер: Бенни Бум / Benny Boom
В ролях: Гэбриел Махт, Роберт Патрик, Кристанна Локен, Николас Гонзалез, Карли Поуп, Джанкарло Эспозито, Шеннон Кэйн, Мэтт Бушнелл, Джино Энтони Песи, Эли Бардха

Описание: Сюжет строится на переводе лейтенанта Лос-Анджелесской полиции Пола Катлера в Детройт, где он должен натренировать команду местных спецназовцев. Однако, рутинная миссия оказывается ловушкой, подстроенной охраняемым государством одержимого гения, избравшего Катлера своей мишенью.

Раздача: Изображение

Изображение
Изображение
Мировая премьера: 1 марта 2011
Изображение Релиз на DVD: 24 марта 2011, «Columbia/Sony»
MPAA: Изображение
Качество: BDRip 1080p R5
Формат: Matroska
Видео: MPEG-4 AVC, 12.6 Мбит/с, 1920x1080, 0.253 Бит/(Пиксели*Кадры), 23,976 кадр/сек
Аудио #1 Изображение AC3, 6 ch, 448 Кбит/с
Аудио #2: Изображение DTS, 6 ch, 1510 Кбит/с
MediaInfo
Формат : Matroska
Размер файла : 8,99 Гбайт
Продолжительность : 1 ч. 28 м.
Общий поток : 14,5 Мбит/сек
Дата кодирования : UTC 2011-03-19 15:36:19
Программа кодирования : mkvmerge v3.4.0 ('Rapunzel') сборка от May 15 2010 09:38:20
Библиотека кодирования : libebml v0.8.0 + libmatroska v0.9.0
Видео
Идентификатор : 1
Формат : AVC
Формат/Информация : Advanced Video Codec
Профиль формата : High@L4.1
Параметр CABAC формата : Да
Параметр ReFrames формата : 4 кадры
Идентификатор кодека : V_MPEG4/ISO/AVC
Продолжительность : 1 ч. 28 м.
Битрейт : 12,6 Мбит/сек
Ширина : 1920 пикс.
Высота : 1080 пикс.
Соотношение сторон : 16:9
Частота кадров : 23,976 кадр/сек
Цветовое пространство : YUV
Подвыборка цветности : 4:2:0
Битовая глубина : 8 бит
Тип развёртки : Прогрессивная
Бит/(Пиксели*Кадры) : 0.253
Размер потока : 7,60 Гбайт (85%)
Библиотека кодирования : x264 core 107 r1766 f9f0035
Настройки программы : cabac=1 / ref=4 / deblock=1:-3:-3 / analyse=0x3:0x113 / me=umh / subme=10 / psy=1 / psy_rd=1.05:0.10 / mixed_ref=1 / me_range=32 / chroma_me=1 / trellis=2 / 8x8dct=1 / cqm=2 / deadzone=21,11 / fast_pskip=0 / chroma_qp_offset=-2 / threads=12 / sliced_threads=0 / nr=0 / decimate=1 / interlaced=0 / constrained_intra=0 / bframes=6 / b_pyramid=2 / b_adapt=2 / b_bias=0 / direct=3 / weightb=1 / open_gop=0 / weightp=2 / keyint=250 / keyint_min=23 / scenecut=40 / intra_refresh=0 / rc_lookahead=50 / rc=2pass / mbtree=1 / bitrate=12557 / ratetol=1.0 / qcomp=0.70 / qpmin=10 / qpmax=51 / qpstep=4 / cplxblur=20.0 / qblur=0.5 / vbv_maxrate=40000 / vbv_bufsize=30000 / ip_ratio=1.40 / aq=1:0.80 / nal_hrd=none
Аудио #1
Идентификатор : 2
Формат : AC-3
Формат/Информация : Audio Coding 3
Расширение режима : CM (complete main)
Идентификатор кодека : A_AC3
Продолжительность : 1 ч. 28 м.
Вид битрейта : Постоянный
Битрейт : 448 Кбит/сек
Канал(ы) : 6 канала(ов)
Расположение каналов : Front: L C R, Side: L R, LFE
Частота : 48,0 КГц
Битовая глубина : 16 бит
Метод сжатия : С потерями
Размер потока : 284 Мбайт (3%)
Язык : Russian
Аудио #2
Идентификатор : 3
Формат : DTS
Формат/Информация : Digital Theater Systems
Идентификатор кодека : A_DTS
Продолжительность : 1 ч. 28 м.
Вид битрейта : Постоянный
Битрейт : 1510 Кбит/сек
Канал(ы) : 6 канала(ов)
Расположение каналов : Front: L C R, Side: L R, LFE
Частота : 48,0 КГц
Битовая глубина : 24 бит
Метод сжатия : С потерями
Размер потока : 957 Мбайт (10%)
Язык : English
Текст #1
Идентификатор : 4
Формат : UTF-8
Идентификатор кодека : S_TEXT/UTF8
Идентификатор кодека/Информация : UTF-8 Plain Text
Язык : Russian
Текст #2
Идентификатор : 5
Формат : UTF-8
Идентификатор кодека : S_TEXT/UTF8
Идентификатор кодека/Информация : UTF-8 Plain Text
Язык : English
Свернуть
Скриншоты
Изображение
Изображение
Изображение
Свернуть


Последний раз редактировалось Костян236 2011-03-19 21:05, всего редактировалось 2 раз(а).
Не в сети
Профиль  
 Добавлено: 2011-03-19 21:04 (спустя 5 минут)
Модератор
Аватара пользователя
Стаж: 8 лет 1 месяц
Возраст: 20
Сообщений: 32130
Спасибок: 98565
Лайков: 80
Успел стянуть с рутрекера.
Cкрытый текст
Изображение
Свернуть
Не в сети
Профиль  
 Добавлено: 2011-03-20 07:40 (спустя 10 часов)
Аватара пользователя
Стаж: 8 лет 11 месяцев
Сообщений: 515
Спасибок: 39
Лайков: 49
Давненько я трэшачков не смотрел. Одни блин блокбастеры, нужно и говнецо иногда поглядывать, а то те блокбастеры станут блин нормой жизни.
Не в сети
Профиль  
 Добавлено: 2011-03-29 00:49 (спустя 8 дней)
Стаж: 6 лет 3 месяца
Сообщений: 11
Спасибо
Не в сети
Профиль  
Начать новую темуОтветить на тему  [ Сообщений: 4 ] 
Вы не можете начинать темы
Вы не можете отвечать на сообщения
Вы не можете редактировать свои сообщения
Вы не можете удалять свои сообщения