Правила форума

Здесь находятся раздачи, на которых не было полного источника (сида) более месяца.
Вы можете вернуть релиз в соответствующий раздел, для этого напишите нам в специальной теме и встаньте на раздачу.
Новые релизы, повторяющие релизы в архиве, повторами не считаются.
Начать новую темуОтветить на тему  [ Сообщений: 4 ] 
Сообщения
 Добавлено: 2012-11-26 07:49
Модератор
Аватара пользователя
Стаж: 6 лет 10 месяцев
Возраст: 33
Сообщений: 5908
Спасибок: 61263
Лайков: 3540
Изображение

Самый пьяный округ в мире
Lawless


Год выпуска: 2012
Страна: США
Слоган: «Преступники станут легендой»
Жанр: драма, криминал
Продолжительность: 01:41:57
Перевод: Любительский (двухголосый)
Режиссер: Джон Хиллкоут
Сценарий: Ник Кейв, Мэтт Бондурант
Продюсер: Дуглас Уик, Майкл Бенаройя, Меган Эллисон, Люси Фишер, Джон Аллен
Оператор: Бенуа Дельхомм
Композитор: Ник Кейв, Уоррен Эллис
В ролях: Шайа ЛаБаф, Том Харди, Гари Олдман, Джессика Честейн, Гай Пирс, Джейсон Кларк, Миа Васиковска, Дэйн ДеХаан, Крис МакГарри, Тим Толин, Лью Темпл, Маркус Хестер
Бюджет: $26 000 000
Сборы в США: $37 391 000
Сборы в мире: $52 190 335
Мировая премьера: 19 мая 2012
Описание: Действие в картине разворачивается на американском Юге во времена сухого закона и Великой Депрессии. В центре сюжета - семья Бондурант, три брата, Джек, Форрест и Говард, которые занимаются запрещенным в то время бизнесом, бутлегерством.
Оптимистично настроенный Джек, самый молодой из братьев, надеется с помощью бутлегерства заработать денег и произвести впечатление на свою девушку Берту. В это же время Форрест, напротив, настроен очень мрачно, он молчалив и подозрителен, а Говарду к тому же часто приходится иметь дело с врагами незаконного семейного бизнеса, в лице которых выступают коррумпированные местные полицейские.


Изображение User Rating: 7.408 (1 416)
Изображение User Rating: 7.50 (27 272)
MPAA: R - Лицам до 17 лет обязательно присутствие взрослого
Раздача группы: Изображение
Изображение
Качество: BDRip, 720p
Формат: Matroska
Видео: AVC; 1280x534 7918 Kbps; 23,976 fps
Аудио №1: Russian: AC3, 448 Kb/s (6 ch) / English: DTS, 1510 Kb/s (6 ch)
Субтитры: Russian, English
mediainfo
Общее
Полное имя : Lawless.2012.L.BDRip.720p.[uniongang].mkv
Формат : Matroska
Версия формата : Version 2
Размер файла : 6,40 Гбайт
Продолжительность : 1 ч. 55 м.
Общий поток : 7918 Кбит/сек
Название фильма : Lawless.2012.L.BDRip.720p.[uniongang]
Дата кодирования : UTC 2012-11-25 22:50:36
Программа кодирования : mkvmerge v5.3.0 ('I could have danced') built on Feb 9 2012 10:38:07
Библиотека кодирования : libebml v1.2.3 + libmatroska v1.3.0

Видео
Идентификатор : 1
Формат : AVC
Формат/Информация : Advanced Video Codec
Профиль формата : High@L4.1
Параметр CABAC формата : Да
Параметр ReFrames формата : 10 кадров
Режим смешивания : Header stripping
Идентификатор кодека : V_MPEG4/ISO/AVC
Продолжительность : 1 ч. 55 м.
Битрейт : 5965 Кбит/сек
Ширина : 1280 пикселей
Высота : 534 пикселя
Соотношение сторон : 2,40:1
Режим частоты кадров : Постоянный
Частота кадров : 23,976 кадра/сек
Цветовое пространство : YUV
Субдискретизация насыщенности : 4:2:0
Битовая глубина : 8 бит
Тип развёртки : Прогрессивная
Бит/(Пиксели*Кадры) : 0.364
Размер потока : 4,69 Гбайт (73%)
Заголовок : hahay0yo@CHD
Библиотека кодирования : x264 core 128 r2216 198a7ea
Настройки программы : cabac=1 / ref=10 / deblock=1:-3:-3 / analyse=0x3:0x113 / me=umh / subme=10 / psy=1 / psy_rd=1.10:0.10 / mixed_ref=1 / me_range=32 / chroma_me=1 / trellis=2 / 8x8dct=1 / cqm=0 / deadzone=21,11 / fast_pskip=0 / chroma_qp_offset=-2 / threads=12 / lookahead_threads=2 / sliced_threads=0 / nr=0 / decimate=1 / interlaced=0 / bluray_compat=0 / constrained_intra=0 / bframes=6 / b_pyramid=2 / b_adapt=2 / b_bias=0 / direct=3 / weightb=1 / open_gop=0 / weightp=2 / keyint=250 / keyint_min=23 / scenecut=40 / intra_refresh=0 / rc_lookahead=40 / rc=2pass / mbtree=0 / bitrate=5965 / ratetol=1.0 / qcomp=0.60 / qpmin=0 / qpmax=69 / qpstep=4 / cplxblur=20.0 / qblur=0.5 / vbv_maxrate=40000 / vbv_bufsize=30000 / nal_hrd=none / ip_ratio=1.40 / pb_ratio=1.30 / aq=1:0.90
Язык : English
Default : Да
Forced : Нет

Аудио #1
Идентификатор : 2
Формат : DTS
Формат/Информация : Digital Theater Systems
Режим смешивания : Header stripping
Идентификатор кодека : A_DTS
Продолжительность : 1 ч. 55 м.
Вид битрейта : Постоянный
Битрейт : 1510 Кбит/сек
Каналы : 6 каналов
Расположение каналов : Front: L C R, Side: L R, LFE
Частота : 48,0 КГц
Битовая глубина : 24 бит
Метод сжатия : С потерями
Размер потока : 1,22 Гбайт (19%)
Заголовок : English DTS 5.1 1509Kbps
Язык : English
Default : Нет
Forced : Нет

Аудио #2
Идентификатор : 3
Формат : AC-3
Формат/Информация : Audio Coding 3
Расширение режима : CM (complete main)
Параметр Endianness формата : Big
Режим смешивания : Header stripping
Идентификатор кодека : A_AC3
Продолжительность : 1 ч. 55 м.
Вид битрейта : Постоянный
Битрейт : 448 Кбит/сек
Каналы : 6 каналов
Расположение каналов : Front: L C R, Side: L R, LFE
Частота : 48,0 КГц
Битовая глубина : 16 бит
Метод сжатия : С потерями
Размер потока : 371 Мбайт (6%)
Язык : Russian
Default : Да
Forced : Да

Текст #1
Идентификатор : 4
Формат : UTF-8
Идентификатор кодека : S_TEXT/UTF8
Идентификатор кодека/Информация : UTF-8 Plain Text
Язык : Russian
Default : Нет
Forced : Нет

Текст #2
Идентификатор : 5
Формат : UTF-8
Идентификатор кодека : S_TEXT/UTF8
Идентификатор кодека/Информация : UTF-8 Plain Text
Язык : English
Default : Нет
Forced : Нет

Меню
00:00:00.000 : en:00:00:00.000
00:04:36.818 : en:00:04:36.818
00:09:16.639 : en:00:09:16.639
00:14:39.587 : en:00:14:39.587
00:21:55.689 : en:00:21:55.689
00:26:34.343 : en:00:26:34.343
00:34:23.895 : en:00:34:23.895
00:41:06.964 : en:00:41:06.964
00:48:30.825 : en:00:48:30.825
00:56:45.652 : en:00:56:45.652
01:05:11.074 : en:01:05:11.074
01:11:21.903 : en:01:11:21.903
01:19:30.724 : en:01:19:30.724
01:25:00.887 : en:01:25:00.887
01:31:49.838 : en:01:31:49.838
01:37:32.889 : en:01:37:32.889
01:44:44.737 : en:01:44:44.737
01:49:07.708 : en:01:49:07.708
Свернуть
"Знаете ли Вы, что..."
  • Фильм поставлен по книге Мэтта Бондуранта «Самое мокрое место в мире» (The Wettest County in the World: A Novel Based on a True Story). Бондурант написал свой роман, основываясь на подлинной истории своего деда.
  • Райан Гослинг рассматривался на роль Джека.
  • Мэгги могла сыграть Скарлетт Йоханссон.
  • Шайа ЛаБаф был первым актёром, утверждённым в фильме.
  • Первоначально Говарда должен был сыграть Джеймс Франко, а Форреста - Райан Гослинг.
  • Приглашая Джессику Честейн, Джон Хилкоут позвонил Терренсу Малику, у которого она снялась в «Древе жизни». По словам Хилкоута, он никогда не слышал столь лестных отзывов о ком-либо, тем более от Малика.
  • У Васиковски, Харди и Честейн не было кинопроб, в то время как у Джейсона Кларка и Дэйна ДеХаана - были.
  • Продюсеры фильма Дуглас Уик и Люси Фишер были столь впечатлены игрой Джейсона Кларка, что в дальнейшем рекомендовали его Базу Лурману для фильма «Великий Гэтсби».
  • Первоначально предполагалось, что персонаж Тома Харди будет более худым, но Харди пришлось набрать мышечную массу для фильма «Темный рыцарь: Возрождение легенды» (2012).
  • Когда Джека заставили ждать снаружи, пока Форрест и Говард мстят тем двоим, что напали на Форреста, освещение снаружи состоит из энергосберегающих ламп. Очевидно, что этот тип ламп не существовал в то время.
  • Телефонные столбы, которые показывают в некоторых сценах, так же держат и линии кабельного телевидения, некоторые из которых оснащены современными «петлями расширения». В США не было кабельного телевидения до 1948 года.
  • Когда Джек и Крикет сопровождают грузовик полный контрабандного спиртного, количество ящиков в кузове меняется несколько раз.
  • Во время перестрелки на мосту шериф стреляет в агента Рейкса, и, кажется, попадает в заднюю часть его левой ноги. Но когда Рейкс отступает к мосту, на его костюме не видно никаких признаков пулевого ранения или крови.
Свернуть
Скриншоты

Изображение
Изображение
Изображение
Изображение
Свернуть
_________________
ИзображениеИзображение Изображение
Изображение
 tany1984 и di-ys1 нравится это.
Не в сети
Профиль  
 Добавлено: 2012-11-26 10:41 (спустя 2 часа 51 минута)
Аватара пользователя
Стаж: 7 лет 9 месяцев
Сообщений: 187
Лайков: 9
В кино еще не вышел, а тут уже 6 гигов)
Не в сети
Профиль  
 Добавлено: 2012-11-26 19:24 (спустя 8 часов)
Модератор
Аватара пользователя
Стаж: 6 лет 10 месяцев
Возраст: 33
Сообщений: 5908
Спасибок: 61263
Лайков: 3540

Sobakevic:

В кино еще не вышел, а тут уже 6 гигов)
премьера (мир)
19 мая 2012
и 1080р уже есть.
_________________
ИзображениеИзображение Изображение
Изображение
Не в сети
Профиль  
 Добавлено: 2013-01-30 16:16 (спустя 2 месяца 3 дня)
Руководитель релиз-группы
Аватара пользователя
Стаж: 7 лет 5 месяцев
Возраст: 31
Сообщений: 3406
Спасибок: 46729
Лайков: 5
viewtopic.php?f=1743&t=497994
Не в сети
Профиль  
Начать новую темуОтветить на тему  [ Сообщений: 4 ] 
Вы не можете начинать темы
Вы не можете отвечать на сообщения
Вы не можете редактировать свои сообщения
Вы не можете удалять свои сообщения