Правила форума

Здесь находятся раздачи, на которых не было полного источника (сида) более месяца.
Вы можете вернуть релиз в соответствующий раздел, для этого напишите нам в специальной теме и встаньте на раздачу.
Новые релизы, повторяющие релизы в архиве, повторами не считаются.
Начать новую темуОтветить на тему  [ Сообщений: 8 ] 
Сообщения
 Добавлено: 2013-01-30 09:09
Модератор
Аватара пользователя
Стаж: 6 лет 10 месяцев
Возраст: 33
Сообщений: 5908
Спасибок: 61265
Лайков: 3540
Изображение

Сайлент Хилл 2
Silent Hill: Revelation 3D


Год выпуска: 2012
Страна: Франция, США, Канада
Слоган: «В этот Хэллоуин 3D путешествие в ад»
Жанр: ужасы, триллер, детектив
Продолжительность: 01:34:41
Перевод: Профессиональный (полное дублирование) [чистый звук]
Режиссер: Майкл Дж. Бассетт
Сценарий: Майкл Дж. Бассетт
Продюсер: Дон Кармоди, Сэмюэл Хадида, Хартли Горенштейн
Оператор: Максим Александр
Композитор: Джефф Дэнна, Акира Ямаока
В ролях: Эделейд Клеменс, Кит Харингтон, Дебора Кара Ангер, Мартин Донован, Малкольм МакДауэлл, Кэрри-Энн Мосс, Шон Бин, Рада Митчелл, Роберто Кампанелла, Эрин Питт, Питер Аутербридж, Джефферсон Браун
Бюджет: $20 000 000
Сборы в США: $17 529 157
Сборы в России: $13 141 854
Сборы в мире: $50 622 655
Мировая премьера: 25 октября 2012
Релиз на DVD: 19 февраля 2013, «West Video»
Релиз на Blu-ray: 19 февраля 2013, «West Video»
Описание: Хизер терзается ночными кошмарами с одиннадцатилетнего возраста и вынуждена со своим отцом постоянно менять место жительства, скрываясь от таинственных сил. Накануне своего восемнадцатого дня рождения Хизер, вернувшись домой, обнаруживает, что её отец исчез. Единственное, что она нашла дома - нарисованный на стене оккультный символ с надписью «отправляйся в Сайлент Хилл».

Изображение User Rating: 5.557 (11 456)
Изображение User Rating: 5.70 (10 695)
MPAA: R - Лицам до 17 лет обязательно присутствие взрослого
Раздача группы: Изображение
Изображение
Качество: WEB-DLRip 1080р
Формат: MKV
Видео: AVC; 1916x796 (2.40:1); 4405 Kbps; 23,976 fps; 0,120 bit/pixel
Аудио №1: русский; AC3; 448 Kbps; CBR; 6 ch
Аудио №2: AC3; 384 Kbps; CBR; 6 ch

Субтитры:
mediainfo
Общее
Уникальный идентификатор : 212542991531050153391811080783632946637 (0x9FE64A8B293B0A0FB182EC4C09F255CD)
Полное имя : E:\Cinema\Sajlent.Hill.2.2012.D.WEB-DL.1080p.mkv
Формат : Matroska
Версия формата : Version 2
Размер файла : 3,53 Гбайт
Продолжительность : 1 ч. 34 м.
Общий поток : 5344 Кбит/сек
Дата кодирования : UTC 2013-01-29 18:20:15
Программа кодирования : mkvmerge v5.2.0 ('I can't explain') built on Dec 18 2011 18:12:03
Библиотека кодирования : libebml v1.2.3 + libmatroska v1.3.0

Видео
Идентификатор : 1
Формат : AVC
Формат/Информация : Advanced Video Codec
Профиль формата : High@L4.0
Параметр CABAC формата : Да
Параметр ReFrames формата : 5 кадров
Идентификатор кодека : V_MPEG4/ISO/AVC
Продолжительность : 1 ч. 34 м.
Битрейт : 4406 Кбит/сек
Ширина : 1916 пикселей
Высота : 796 пикселей
Соотношение сторон : 2,40:1
Режим частоты кадров : Постоянный
Частота кадров : 23,976 кадра/сек
Цветовое пространство : YUV
Субдискретизация насыщенности : 4:2:0
Битовая глубина : 8 бит
Тип развёртки : Прогрессивная
Бит/(Пиксели*Кадры) : 0.120
Размер потока : 2,91 Гбайт (82%)
Язык : English
Default : Да
Forced : Да
Основные цвета : BT.709
Характеристики трансфера : BT.709
Коэффициенты матрицы : BT.709

Аудио #1
Идентификатор : 2
Формат : AC-3
Формат/Информация : Audio Coding 3
Расширение режима : CM (complete main)
Параметр Endianness формата : Big
Идентификатор кодека : A_AC3
Продолжительность : 1 ч. 34 м.
Вид битрейта : Постоянный
Битрейт : 448 Кбит/сек
Каналы : 6 каналов
Расположение каналов : Front: L C R, Side: L R, LFE
Частота : 48,0 КГц
Битовая глубина : 16 бит
Метод сжатия : С потерями
Размер потока : 303 Мбайт (8%)
Заголовок : DD 5.1 @ 448 kbps
Язык : Russian
Default : Да
Forced : Да

Аудио #2
Идентификатор : 3
Формат : AC-3
Формат/Информация : Audio Coding 3
Расширение режима : CM (complete main)
Параметр Endianness формата : Big
Идентификатор кодека : A_AC3
Продолжительность : 1 ч. 34 м.
Вид битрейта : Постоянный
Битрейт : 384 Кбит/сек
Каналы : 6 каналов
Расположение каналов : Front: L C R, Side: L R, LFE
Частота : 48,0 КГц
Битовая глубина : 16 бит
Метод сжатия : С потерями
Размер потока : 260 Мбайт (7%)
Заголовок : DD 5.1 @ 384 kbps
Язык : English
Default : Нет
Forced : Нет

Текст
Идентификатор : 4
Формат : UTF-8
Идентификатор кодека : S_TEXT/UTF8
Идентификатор кодека/Информация : UTF-8 Plain Text
Язык : English
Default : Нет
Forced : Нет

Меню
00:00:00.000 : en:1
00:04:43.000 : en:2
00:11:40.000 : en:3
00:17:11.000 : en:4
00:21:31.000 : en:5
00:24:06.000 : en:6
00:28:01.000 : en:7
00:31:29.000 : en:8
00:35:26.000 : en:9
00:40:51.000 : en:10
00:46:52.000 : en:11
00:50:39.000 : en:12
00:53:57.000 : en:13
00:57:49.000 : en:14
01:03:54.000 : en:15
01:06:32.000 : en:16
01:11:31.000 : en:17
01:16:37.000 : en:18
01:23:00.000 : en:19
01:27:23.000 : en:20
Свернуть
"Знаете ли Вы, что..."
  • На роль Хизер рассматривалась Сирша Ронан.
  • В основу сценария фильма положен сюжет компьютерной игры «Silent Hill 3».
Свернуть
Скриншоты

Изображение
Изображение
Изображение
Изображение
Изображение
Изображение
Свернуть
_________________
ИзображениеИзображение Изображение
Изображение


Последний раз редактировалось rotametr 2013-01-30 11:51, всего редактировалось 1 раз.
 tany1984 и di-ys1 нравится это.
Не в сети
Профиль  
 Добавлено: 2013-01-30 09:58 (спустя 48 минут)
Аватара пользователя
Стаж: 6 лет
Сообщений: 15
Ну как фильм?
Не в сети
Профиль  
 Добавлено: 2013-01-30 18:22 (спустя 8 часов)
Аватара пользователя
Стаж: 9 лет
Сообщений: 545
Спасибок: 339
а можно сэпмл пожалуйста?

Добавлено спустя 28 минут:
спасибо,уже скачал.сэмпл не надо.звук и правда чистый)
спасибо релизеру)
_________________
Smack - Вместе нам не быть (Mixtape vol. 3) [2013]
Smack - Нарисую (Mixtape vol. 2) [2011]
Не в сети
Профиль  
 Добавлено: 2013-01-30 18:59 (спустя 36 минут)
Аватара пользователя
Стаж: 7 лет 8 месяцев
Возраст: 24
Сообщений: 299
Спасибок: 71
Лайков: 2
а 3д когда будет?
Не в сети
Профиль  
 Добавлено: 2013-01-31 17:50 (спустя 22 часа)
Стаж: 5 лет 10 месяцев
Сообщений: 280
Лайков: 8
Такая же как первая...но по моему первая по интереснее будет....хотя...на вкус и цвет...
Не в сети
Профиль  
 Добавлено: 2013-01-31 20:44 (спустя 2 часа 54 минуты)
Аватара пользователя
Стаж: 8 лет
Сообщений: 1391
Спасибок: 39
Лайков: 64
Спасибо за качество, фильм дерьмо, с первым рядом не стоит :ne_znayu:
Не в сети
Профиль  
 Добавлено: 2013-01-31 22:22 (спустя 1 час 37 минут)
Стаж: 8 лет 2 месяца
Сообщений: 37
Спасибок: 27
Посмотрел фильм. Первая половина фильма вообще ни о чем, такое ощущение что создатели фильма даже в игру не удосужились сыграть, но уже во второй половине фильма становится интереснее. Но концовка меня вообще убила, тупо и глупо было заканчивать так фильм. А так в целом, посмотреть стоит. Не дотягивает до первого шедевра Кристофа Ганса!
Не в сети
Профиль  
 Добавлено: 2013-02-09 12:06 (спустя 8 дней)
Модератор
Аватара пользователя
Стаж: 8 лет 11 месяцев
Сообщений: 516
Спасибок: 26888
Лайков: 1
viewtopic.php?f=1743&t=499188
Не в сети
Профиль  
Начать новую темуОтветить на тему  [ Сообщений: 8 ] 
Вы не можете начинать темы
Вы не можете отвечать на сообщения
Вы не можете редактировать свои сообщения
Вы не можете удалять свои сообщения