Правила форума

Здесь находятся раздачи, на которых не было полного источника (сида) более месяца.
Вы можете вернуть релиз в соответствующий раздел, для этого напишите нам в специальной теме и встаньте на раздачу.
Новые релизы, повторяющие релизы в архиве, повторами не считаются.
Начать новую темуОтветить на тему  [ 1 сообщение ] 
Сообщения
 Добавлено: 2012-06-26 12:08
DVD Release Group
Аватара пользователя
Стаж: 7 лет 1 месяц
Сообщений: 3569
Спасибок: 247686
Лайков: 1020
Секса много не бывает

Un heureux evenement


Изображение


Год выпуска: 2011
Страна: Франция, Бельгия
Жанр: Драма, комедия
Продолжительность: 01:45:05
Перевод: Профессиональный (многоголосый закадровый)
Cубтитры: Русские
Режиссер: Реми Безансон
В ролях: Луиз Бургуан, Пио Мармай, Жозиан Баласко, Тьерри Фремон, Габриель Лазюр, Фирмин Ришар, Анаис, Дафна Бюрки, Ланник Готри, Жерар Любин, Николь Вальберг, Луи-До де Ланкесэ, Офелия Керинг, Амели Гленн, Доминик Байенс, Мишель Набокофф, Айссату Диоп, Анник Джонсон, Давид Фонкинос, Эрика Сэйнт, Виктория Бекер, Джульетт Бекер
Описание: Первое свидание. Первый поцелуй. Страсть... Первое "Я тебя люблю". Чувства переполняют тебя. Ты летишь и больше никогда не будешь прежней. Но впереди притаилось то, к чему нельзя подготовиться... Чувство, способное разрушить тебя полностью.
Кинопоиск: 6.6 (153)
IMDb: 6.1 (538)
Дополнительно:
Исходник: DVD9 (6.42 GB ) [лицензия, PAL 16:9].
Убрано: Трейлер, создатели и исполнители, смотрите на DVD, фотогалерея, заставки и предупреждение.
Сжатие фильма 30% сжатия (без учета ручного перераспределения битрейта, за счет большего сжатия конечных титров).
Работоспособность проверена на софтовом плеере Windows Media и бытовом LG.
Качество: DVD5 (сжатый)
Формат: DVD Video
Видео кодек: MPEG2
Аудио кодек: AC3
Видео: 720х576 25fps 4748Kbps
Аудио:
Аудио Rus: 48kHz 6ch 448Kbps
Аудио Fra: 48kHz 6ch 448Kbps
"MediaInfo"
Формат : MPEG-PS
Размер файла : 1024 Мбайт
Продолжительность : 24 м.
Режим общего битрейта : Переменный
Общий поток : 5759 Кбит/сек

Видео
Идентификатор : 224 (0xE0)
Формат : MPEG Video
Версия формата : Version 2
Профиль формата : Main@Main
Параметр BVOP формата : Да
Параметр матрицы формата : Выборочная
Продолжительность : 24 м.
Вид битрейта : Переменный
Битрейт : 4748 Кбит/сек
Максимальный битрейт : 8904 Кбит/сек
Ширина : 720 пикселей
Высота : 576 пикселей
Соотношение сторон : 16:9
Частота кадров : 25,000 кадров/сек
Стандарт вещания : PAL
Цветовое пространство : YUV
Субдискретизация насыщенности : 4:2:0
Битовая глубина : 8 бит
Тип развёртки : Прогрессивная
Порядок развёртки : Нижнее поле первое
Метод сжатия : С потерями
Бит/(Пиксели*Кадры) : 0.458
Размер потока : 844 Мбайт (82%)

Аудио #1
Идентификатор : 189 (0xBD)-128 (0x80)
Формат : AC-3
Формат/Информация : Audio Coding 3
Расширение режима : CM (complete main)
Режим смешивания : DVD-Video
Продолжительность : 24 м.
Вид битрейта : Постоянный
Битрейт : 448 Кбит/сек
Каналы : 6 каналов
Расположение каналов : Front: L C R, Side: L R, LFE
Частота : 48,0 КГц
Битовая глубина : 16 бит
Метод сжатия : С потерями
Размер потока : 79,6 Мбайт (8%)

Аудио #2
Идентификатор : 189 (0xBD)-129 (0x81)
Формат : AC-3
Формат/Информация : Audio Coding 3
Расширение режима : CM (complete main)
Режим смешивания : DVD-Video
Продолжительность : 24 м.
Вид битрейта : Постоянный
Битрейт : 448 Кбит/сек
Каналы : 6 каналов
Расположение каналов : Front: L C R, Side: L R, LFE
Частота : 48,0 КГц
Битовая глубина : 16 бит
Метод сжатия : С потерями
Размер потока : 79,6 Мбайт (8%)

Текст
Идентификатор : 189 (0xBD)-32 (0x20)
Формат : RLE
Формат/Информация : Run-length encoding
Режим смешивания : DVD-Video

Меню
Свернуть

"Скриншоты"
Изображение
Изображение
Изображение
Изображение
Изображение
Изображение
Изображение
Изображение
Свернуть

Раздача группы:
Изображение
Не в сети
Профиль  
Начать новую темуОтветить на тему  [ 1 сообщение ] 
Вы не можете начинать темы
Вы не можете отвечать на сообщения
Вы не можете редактировать свои сообщения
Вы не можете удалять свои сообщения