Правила форума

Здесь находятся раздачи, на которых не было полного источника (сида) более месяца.
Вы можете вернуть релиз в соответствующий раздел, для этого напишите нам в специальной теме и встаньте на раздачу.
Новые релизы, повторяющие релизы в архиве, повторами не считаются.
Начать новую темуОтветить на тему  [ Сообщений: 5 ] 
Сообщения
 Добавлено: 2013-01-10 11:40
Модератор
Аватара пользователя
Стаж: 6 лет 10 месяцев
Возраст: 33
Сообщений: 5908
Спасибок: 61259
Лайков: 3540
Изображение

Изображение


Год выпуска: 2012
Страна: Великобритания
Слоган: «They Won't Take Any Shih Tzu.»
Жанр: комедия, криминал
Продолжительность: 01:45:38
Перевод: Дублированное [чистый звук] + Авторский - Дмитрий Пучков (Гоблин) [Звук с TS]
Режиссер: Мартин МакДона
Сценарий: Мартин МакДона
Продюсер: Грэхэм Броадбент, Питер Чернин, Мартин МакДона, Бетси Дэнбьюри, Сара Харви
Оператор: Бен Дэвис
Композитор: Картер Бёруэлл
В ролях: Колин Фаррелл, Сэм Рокуэлл, Кристофер Уокен, Вуди Харрельсон, Том Уэйтс, Эбби Корниш, Желько Иванек, Майкл Питт, Майкл Стулбарг, Габури Сидибе
Бюджет: $15 000 000
Сборы в США: $15 024 049
Сборы в России: $2 854 275
Мировая премьера: 7 сентября 2012
Релиз на DVD: 6 февраля 2013, «Кармен Видео»
Релиз на Blu-ray: 6 февраля 2013, «Кармен Видео»
Описание: Непутевый писатель потерял вдохновение и никак не может справиться с новым сценарием. Волей случая он оказывается втянутым в похищение собаки, затеянное его эксцентричными дружками. Выясняется, что украденное животное - любимый пёс главного местного гангстера, которому ничего не стоит в два счета вычислить и уничтожить оболтусов.

Изображение User Rating: 8.197 (8204)
Изображение User Rating: 7.80 (13 521)
MPAA: R - Лицам до 17 лет обязательно присутствие взрослого
Раздача группы: Изображение
Изображение
Качество: BDRip (720p)
Формат: MKV
Видео: MPEG-4 AVC, 4159 Кбит/с, 1280x536, 23.976 кадр/с
Аудио: Dub: AC3, 448 kb/s (6 ch) / Gob: AC3, 320 kb/s (2 ch) / English: DTS, 1510 kb/s (6 ch) [/b]
"Знаете ли Вы, что..."
  • В сцене на кладбище на могиле, за которой прячется киллер по кличке «Бубновый Валет», видна надпись «Rourke». Микки Рурк первоначально должен был сниматься в фильме, но из-за разногласий с режиссёром фильма он был заменен на Вуди Харрельсона.
Свернуть
"Инфо-файл"
Общее
Уникальный идентификатор : 198085152827774717667705812926335787313 (0x9505D00F876ACB058C0EA561D5CBA131)
Полное имя : N:\Sem.psihopatov.2012.x264.BDRip(720p).mkv
Формат : Matroska
Версия формата : Version 2
Размер файла : 4,71 Гбайт
Продолжительность : 1 ч. 50 м.
Общий поток : 6113 Кбит/сек
Название фильма : --SCHUMAHER--
Дата кодирования : UTC 2013-01-10 07:08:57
Программа кодирования : mkvmerge v5.8.0 ('No Sleep / Pillow') built on Sep 2 2012 15:37:04
Библиотека кодирования : libebml v1.2.3 + libmatroska v1.3.0

Видео
Идентификатор : 1
Формат : AVC
Формат/Информация : Advanced Video Codec
Профиль формата : High@L4.1
Параметр CABAC формата : Да
Параметр ReFrames формата : 5 кадров
Идентификатор кодека : V_MPEG4/ISO/AVC
Продолжительность : 1 ч. 50 м.
Битрейт : 4159 Кбит/сек
Ширина : 1280 пикселей
Высота : 536 пикселей
Соотношение сторон : 2,40:1
Режим частоты кадров : Постоянный
Частота кадров : 23,976 кадра/сек
Цветовое пространство : YUV
Субдискретизация насыщенности : 4:2:0
Битовая глубина : 8 бит
Тип развёртки : Прогрессивная
Бит/(Пиксели*Кадры) : 0.253
Размер потока : 3,11 Гбайт (66%)
Библиотека кодирования : x264 core 129 r2230 1cffe9f
Настройки программы : cabac=1 / ref=5 / deblock=1:0:0 / analyse=0x3:0x133 / me=umh / subme=7 / psy=1 / psy_rd=1.00:0.00 / mixed_ref=1 / me_range=16 / chroma_me=1 / trellis=1 / 8x8dct=1 / cqm=0 / deadzone=21,11 / fast_pskip=0 / chroma_qp_offset=-2 / threads=12 / lookahead_threads=2 / sliced_threads=0 / nr=0 / decimate=1 / interlaced=0 / bluray_compat=0 / constrained_intra=0 / bframes=3 / b_pyramid=2 / b_adapt=1 / b_bias=0 / direct=1 / weightb=1 / open_gop=0 / weightp=2 / keyint=250 / keyint_min=23 / scenecut=40 / intra_refresh=0 / rc_lookahead=40 / rc=2pass / mbtree=1 / bitrate=4159 / ratetol=1.0 / qcomp=0.60 / qpmin=0 / qpmax=69 / qpstep=4 / cplxblur=20.0 / qblur=0.5 / ip_ratio=1.40 / aq=1:1.00
Язык : English
Default : Да
Forced : Да

Аудио #1
Идентификатор : 2
Формат : AC-3
Формат/Информация : Audio Coding 3
Расширение режима : CM (complete main)
Параметр Endianness формата : Big
Идентификатор кодека : A_AC3
Продолжительность : 1 ч. 50 м.
Вид битрейта : Постоянный
Битрейт : 448 Кбит/сек
Каналы : 6 каналов
Расположение каналов : Front: L C R, Side: L R, LFE
Частота : 48,0 КГц
Битовая глубина : 16 бит
Метод сжатия : С потерями
Размер потока : 354 Мбайт (7%)
Язык : Russian
Default : Да
Forced : Да

Аудио #2
Идентификатор : 3
Формат : DTS
Формат/Информация : Digital Theater Systems
Режим : 16
Параметр Endianness формата : Big
Идентификатор кодека : A_DTS
Продолжительность : 1 ч. 50 м.
Вид битрейта : Постоянный
Битрейт : 1509 Кбит/сек
Каналы : 6 каналов
Расположение каналов : Front: L C R, Side: L R, LFE
Частота : 48,0 КГц
Битовая глубина : 24 бит
Метод сжатия : С потерями
Размер потока : 1,16 Гбайт (25%)
Язык : English
Default : Нет
Forced : Нет

Текст #1
Идентификатор : 4
Формат : UTF-8
Идентификатор кодека : S_TEXT/UTF8
Идентификатор кодека/Информация : UTF-8 Plain Text
Заголовок : Forced
Язык : English
Default : Нет
Forced : Нет

Текст #2
Идентификатор : 5
Формат : UTF-8
Идентификатор кодека : S_TEXT/UTF8
Идентификатор кодека/Информация : UTF-8 Plain Text
Язык : English
Default : Нет
Forced : Нет

Текст #3
Идентификатор : 6
Формат : UTF-8
Идентификатор кодека : S_TEXT/UTF8
Идентификатор кодека/Информация : UTF-8 Plain Text
Язык : English
Default : Нет
Forced : Нет

Меню
00:00:00.000 : en:00:00:00.000
00:06:53.038 : en:00:06:53.038
00:14:26.115 : en:00:14:26.115
00:20:37.987 : en:00:20:37.987
00:27:05.916 : en:00:27:05.916
00:33:35.722 : en:00:33:35.722
00:38:01.112 : en:00:38:01.112
00:45:08.205 : en:00:45:08.205
00:52:11.295 : en:00:52:11.295
00:59:04.207 : en:00:59:04.207
01:09:26.496 : en:01:09:26.496
01:17:18.133 : en:01:17:18.133
01:20:54.641 : en:01:20:54.641
01:26:29.393 : en:01:26:29.393
01:35:36.814 : en:01:35:36.814
01:41:13.192 : en:01:41:13.192
Свернуть
Скриншоты

Изображение
Изображение
Изображение
Изображение
Свернуть
_________________
ИзображениеИзображение Изображение
Изображение


Последний раз редактировалось rotametr 2013-01-10 16:42, всего редактировалось 3 раз(а).
 tany1984 и di-ys1 нравится это.
Не в сети
Профиль  
 Добавлено: 2013-01-10 13:42 (спустя 2 часа 1 минута)
Стаж: 5 лет 3 месяца
Сообщений: 151
Лайков: 2
Будем надеяться,что фильм оправдает мои ожидания)
Не в сети
Профиль  
 Добавлено: 2013-01-11 23:50 (спустя 1 день 10 часов)
Стаж: 5 лет 3 месяца
Сообщений: 151
Лайков: 2
Фильм просто огонь!)Мне очень понравился!)
Не в сети
Профиль  
 Добавлено: 2013-01-12 00:16 (спустя 25 минут)
Модератор
Аватара пользователя
Стаж: 6 лет 10 месяцев
Возраст: 33
Сообщений: 5908
Спасибок: 61259
Лайков: 3540

09лёшик09:

Фильм просто огонь!)Мне очень понравился!)
:co_ol:
_________________
ИзображениеИзображение Изображение
Изображение
Не в сети
Профиль  
 Добавлено: 2013-02-02 12:37 (спустя 21 день)
Руководитель релиз-группы
Аватара пользователя
Стаж: 7 лет 5 месяцев
Возраст: 31
Сообщений: 3407
Спасибок: 46729
Лайков: 5
viewtopic.php?f=1750&t=498356
Не в сети
Профиль  
Начать новую темуОтветить на тему  [ Сообщений: 5 ] 
Вы не можете начинать темы
Вы не можете отвечать на сообщения
Вы не можете редактировать свои сообщения
Вы не можете удалять свои сообщения