Правила форума

Здесь находятся раздачи, на которых не было полного источника (сида) более месяца.
Вы можете вернуть релиз в соответствующий раздел, для этого напишите нам в специальной теме и встаньте на раздачу.
Новые релизы, повторяющие релизы в архиве, повторами не считаются.
Начать новую темуОтветить на тему  [ Сообщений: 9 ] 
Сообщения
 Добавлено: 2013-01-14 11:48
Top-releaser
Аватара пользователя
Стаж: 7 лет 3 месяца
Возраст: 25
Сообщений: 1036
Спасибок: 2694
Лайков: 9
Семь психопатов
Seven Psychopaths



Изображение


Год выхода: 2012
Страна: Великобритания

Жанр: комедия, криминал
Продолжительность: 01:50:23
Перевод: Дублированное [Чистый звук] / Любительское (одноголосое) [Гоблин]

Режиссер: Мартин МакДона
Сценарий: Мартин МакДона
Продюсер: Грэхэм Броадбент, Питер Чернин, Мартин МакДона
Оператор: Бен Дэвис
Композитор: Картер Бёруэлл

В ролях: Колин Фаррелл, Сэм Рокуэлл, Кристофер Уокен, Вуди Харрельсон, Ольга Куриленко, Том Уэйтс, Эбби Корниш, Желько Иванек, Майкл Питт, Майкл Стулбарг, Габури Сидибе

Описание: Непутевый писатель потерял вдохновение и никак не может справиться с новым сценарием. Волей случая он оказывается втянутым в похищение собаки, затеянное его эксцентричными дружками. Выясняется, что украденное животное — любимый пёс главного местного гангстера, которому ничего не стоит в два счета вычислить и уничтожить оболтусов.

Изображение

Изображение

Бюджет: $15 000 000
Cборы в России: $2 854 275

Качество BDRip (1080p)
Формат: Mkv

Видео: MPEG4 Video (H264) 1920x800 23.976fps 12.0 Mbps
Аудио 1 [Rus]: Dolby AC3 48000Hz 6ch 448 Kbps
Аудио 2 [Rus]: Dolby AC3 48000Hz 6ch 320 Kbps
Аудио 3 [Eng]: DTS 48000Hz 6ch 1 510 Kbps
Subtitle: Utf-8

Изображение

MediaInfo
General
Unique ID : 177738565010722619402392919964659275521 (0x85B733D497B9AB109F1F7DA2D094D701)
Complete name : E:\DownLoad\DVD_RG\Seven Psychopaths (2012) DVD_RG(1080p).mkv
Format : Matroska
Format version : Version 4 / Version 2
File size : 11.2 GiB
Duration : 1h 50mn
Overall bit rate : 14.6 Mbps
Encoded date : UTC 2010-02-22 21:41:31
Writing application : mkvmerge v5.9.0 ('On The Loose') built on Dec 9 2012 15:37:01
Writing library : libebml v1.3.0 + libmatroska v1.4.0

Video
ID : 1
Format : AVC
Format/Info : Advanced Video Codec
Format profile : High@L4.1
Format settings, CABAC : Yes
Format settings, ReFrames : 5 frames
Codec ID : V_MPEG4/ISO/AVC
Duration : 1h 50mn
Bit rate : 12.0 Mbps
Width : 1 920 pixels
Height : 800 pixels
Display aspect ratio : 2.40:1
Frame rate mode : Constant
Frame rate : 23.976 fps
Color space : YUV
Chroma subsampling : 4:2:0
Bit depth : 8 bits
Scan type : Progressive
Bits/(Pixel*Frame) : 0.326
Stream size : 9.25 GiB (82%)
Writing library : x264 core 129 r2230 1cffe9f
Encoding settings : cabac=1 / ref=5 / deblock=1:-3:-3 / analyse=0x3:0x113 / me=tesa / subme=10 / psy=1 / psy_rd=0.97:0.18 / mixed_ref=1 / me_range=24 / chroma_me=1 / trellis=2 / 8x8dct=1 / cqm=0 / deadzone=21,11 / fast_pskip=0 / chroma_qp_offset=-3 / threads=12 / lookahead_threads=2 / sliced_threads=0 / nr=0 / decimate=1 / interlaced=0 / bluray_compat=0 / constrained_intra=0 / bframes=6 / b_pyramid=2 / b_adapt=2 / b_bias=0 / direct=3 / weightb=1 / open_gop=0 / weightp=2 / keyint=250 / keyint_min=23 / scenecut=40 / intra_refresh=0 / rc_lookahead=60 / rc=crf / mbtree=1 / crf=19.0 / qcomp=0.60 / qpmin=0 / qpmax=69 / qpstep=4 / ip_ratio=1.40 / aq=1:1.00
Language : English
Default : Yes
Forced : No
Color primaries : BT.709
Transfer characteristics : BT.709
Matrix coefficients : BT.709

Audio #1
ID : 2
Format : AC-3
Format/Info : Audio Coding 3
Mode extension : CM (complete main)
Format settings, Endianness : Big
Codec ID : A_AC3
Duration : 1h 50mn
Bit rate mode : Constant
Bit rate : 448 Kbps
Channel(s) : 6 channels
Channel positions : Front: L C R, Side: L R, LFE
Sampling rate : 48.0 KHz
Bit depth : 16 bits
Compression mode : Lossy
Stream size : 354 MiB (3%)
Title : RUS DUB
Language : Russian
Default : Yes
Forced : No

Audio #2
ID : 3
Format : AC-3
Format/Info : Audio Coding 3
Mode extension : CM (complete main)
Format settings, Endianness : Big
Codec ID : A_AC3
Duration : 1h 50mn
Bit rate mode : Constant
Bit rate : 320 Kbps
Channel(s) : 2 channels
Channel positions : Front: L R
Sampling rate : 48.0 KHz
Bit depth : 16 bits
Compression mode : Lossy
Stream size : 253 MiB (2%)
Title : RUS AVO (D.Puchkov)
Language : Russian
Default : No
Forced : No

Audio #3
ID : 4
Format : DTS
Format/Info : Digital Theater Systems
Codec ID : A_DTS
Duration : 1h 50mn
Bit rate mode : Constant
Bit rate : 1 510 Kbps
Channel(s) : 6 channels
Channel positions : Front: L C R, Side: L R, LFE
Sampling rate : 48.0 KHz
Bit depth : 24 bits
Compression mode : Lossy
Stream size : 1.16 GiB (10%)
Language : English
Default : No
Forced : No

Text #1
ID : 5
Format : UTF-8
Codec ID : S_TEXT/UTF8
Codec ID/Info : UTF-8 Plain Text
Language : Russian
Default : Yes
Forced : No

Text #2
ID : 6
Format : UTF-8
Codec ID : S_TEXT/UTF8
Codec ID/Info : UTF-8 Plain Text
Language : English
Default : No
Forced : No

Menu
00:00:00.000 : en:00:00:00.000
00:06:53.038 : en:00:06:53.038
00:14:26.115 : en:00:14:26.115
00:20:37.987 : en:00:20:37.987
00:27:05.916 : en:00:27:05.916
00:33:35.722 : en:00:33:35.722
00:38:01.112 : en:00:38:01.112
00:45:08.205 : en:00:45:08.205
00:52:11.295 : en:00:52:11.295
00:59:04.207 : en:00:59:04.207
01:09:26.496 : en:01:09:26.496
01:17:18.133 : en:01:17:18.133
01:20:54.641 : en:01:20:54.641
01:26:29.393 : en:01:26:29.393
01:35:36.814 : en:01:35:36.814
01:41:13.192 : en:01:41:13.192


Свернуть
Скриншоты
Изображение
Изображение
Изображение
Изображение
Изображение
Свернуть


Последний раз редактировалось FoTP 2013-01-14 19:12, всего редактировалось 2 раз(а).
Не в сети
Профиль  
 Добавлено: 2013-01-14 17:42 (спустя 5 часов)
Стаж: 7 лет 6 месяцев
Сообщений: 20
Скажите пожалуйста, а озвучка Гоблина чистая или камриповская?
Не в сети
Профиль  
 Добавлено: 2013-01-14 17:56 (спустя 13 минут)
Аватара пользователя
Стаж: 8 лет 3 месяца
Сообщений: 231
Спасибок: 29
озвучка камрип, смысл такую озвучку лепить к такому видео вообще не понятен
Не в сети
Профиль  
 Добавлено: 2013-01-15 17:41 (спустя 23 часа)
Аватара пользователя
Стаж: 8 лет 6 месяцев
Сообщений: 51
Спасибок: 36
смотрите в переводе гоблина только
Не в сети
Профиль  
 Добавлено: 2013-01-15 22:42 (спустя 5 часов)
Стаж: 5 лет 1 месяц
Сообщений: 3
А у меня выдал троян, но я удалила его. и спасибо хороший фильм!
Не в сети
Профиль  
 Добавлено: 2013-01-17 19:13 (спустя 1 день 20 часов)
Стаж: 7 лет 8 месяцев
Сообщений: 105
бред
Не в сети
Профиль  
 Добавлено: 2013-01-26 20:54 (спустя 9 дней)
Аватара пользователя
Стаж: 4 года 11 месяцев
Возраст: 48
Сообщений: 90
Спасибок: 7
Кино очень даже можно посмотркть! Сначала кажется, что очередная низкобюджетная муть, но потом...Диалоги вполне проработаны, характеры вполне прорисованы и жизненны...сюжет рассказывать не буду, чтоб не лишать читающих удовольствия от просмотра.
_________________
"Когда я умру, на мою могилу нанесут много мусора, но ветер времени безжалостно сметет его." И.Сталин
Не в сети
Профиль  
 Добавлено: 2013-02-02 11:35 (спустя 6 дней)
Руководитель релиз-группы
Аватара пользователя
Стаж: 7 лет 4 месяца
Возраст: 31
Сообщений: 3407
Спасибок: 46729
Лайков: 5
viewtopic.php?f=1750&t=498326
Не в сети
Профиль  
 Добавлено: 2013-03-19 21:06 (спустя 1 месяц 17 дней)
Стаж: 4 года 10 месяцев
[b]FoTP[/b]
Не в сети
Профиль  
Начать новую темуОтветить на тему  [ Сообщений: 9 ] 
Вы не можете начинать темы
Вы не можете отвечать на сообщения
Вы не можете редактировать свои сообщения
Вы не можете удалять свои сообщения