Правила форума

Здесь находятся раздачи, на которых не было полного источника (сида) более месяца.
Вы можете вернуть релиз в соответствующий раздел, для этого напишите нам в специальной теме и встаньте на раздачу.
Новые релизы, повторяющие релизы в архиве, повторами не считаются.
Начать новую темуОтветить на тему  [ Сообщений: 5 ] 
Сообщения
 Добавлено: 2011-01-21 18:56
Аватара пользователя
Стаж: 8 лет 9 месяцев
Сообщений: 23
Спасибок: 744
Лайков: 1
Семьянин / The Family Man

Изображение


Год выпуска: 2000
Страна: США
Слоган: А что было бы, если...
Жанр: Драма, комедия.
Продолжительность: 125 мин.
Перевод: Профессиональный (двухголосый закадровый)
Субтитры: Нет

Режиссёр: Бретт Рэтнер.
Сценарист: Дэвид Даймонд, Дэвид Вайсман.
Продюсер: Марк Абрахам, Эрмиан Бернштейн, Томас А. Блисс, Эндрю З. Дэвис, Джеймс М. Фрейтаг, Джефф Ливайн, Тони Людвиг, Алан Ричи, Ховард Розенман.
Оператор: Данте Спинотти.
Композитор: Дэнни Элфмэн.
В ролях: Николас Кейдж, Теа Леони, Дон Чидл, Джереми Пивен, Сол Рубинек, Джозеф Соммер, Макензи Вега, Jake Milkovich, Ryan Milkovich, Лиза Торнхилл, Харви Преснелл, Мэри Бет Херт, Эмбер Валлетта, Френсин Йорк, Рут Уильямсон, Джон Ф. О`Донохью, Daniel Whitner, Люси Лиу, Lisa Loсicero, Уасс М. Стивенс ...
Описание: Джек Кэмпбелл- удачливый брокер, вполне удовлетворенный своей карьерой и живущий "по высшему разряду". Все в его жизни идет, как надо, а ездит он на Феррари. Но, как нередко бывает, случай радикально меняет его жизнь.
Рейтинг MPAA: Рейтинг PG-13 (Дети до 13 лет допускаются на фильм только с родителями)
Мировая премьера: 12 декабря 2000 г.
Бюджет: $60 млн.
Кассовые сборы: $124 745 083.

Качество: DVD-5
Формат: MPEG Video
Видео кодек: MPEG2
Аудио кодек: DTS
Видео: PAL 16:9 (720x576) VBR Auto Letterboxed
~ 4789.53 kbps avg
Аудио #1: Russian (Dolby AC3, 6 ch),English (Dolby AC3, 6 ch) [Профессиональный (двухголосый закадровый)]
Audio #1: AC3, 3/2 (L,C,R,SL,SR)+LFE ch, 448 kbps, Delay 0 mSec
Audio #2: AC3, 3/2 (L,C,R,SL,SR)+LFE ch, 448 kbps, Delay 0 mSec
Субтитры: Нет
DVDinfo
Title: Семьянин
Формат : DVD Video
Профиль формата : Menu
Размер файла : 16,0 Кбайт
Режим общего битрейта : Переменный

Видео
Идентификатор : 224 (0xE0)
Формат : MPEG Video
Версия формата : Version 2
Вид битрейта : Переменный
Ширина : 720 пикселей
Высота : 576 пикселей
Соотношение сторон : 16:9
Частота кадров : 25,000 кадров/сек
Стандарт вещания : PAL
Метод сжатия : С потерями

Текст
Формат : RLE
Формат/Информация : Run-length encoding
Битовая глубина : 2 бит

Общее
Полное имя : D:\торенты\Семьянин\VIDEO_TS\VIDEO_TS.IFO
Формат : DVD Video
Профиль формата : Menu
Размер файла : 16,0 Кбайт
Режим общего битрейта : Переменный

Видео
Идентификатор : 224 (0xE0)
Формат : MPEG Video
Версия формата : Version 2
Вид битрейта : Переменный
Ширина : 720 пикселей
Высота : 576 пикселей
Соотношение сторон : 16:9
Частота кадров : 25,000 кадров/сек
Стандарт вещания : PAL
Метод сжатия : С потерями

Текст
Формат : RLE
Формат/Информация : Run-length encoding
Битовая глубина : 2 бит

Общее
Полное имя : D:\торенты\Семьянин\VIDEO_TS\VIDEO_TS.VOB
Формат : MPEG-PS
Размер файла : 154 Кбайт
Продолжительность : 520 мс.
Общий поток : 2426 Кбит/сек

Видео
Идентификатор : 224 (0xE0)
Формат : MPEG Video
Версия формата : Version 2
Профиль формата : Main@Main
Параметр BVOP формата : Да
Параметр матрицы формата : Выборочная
Продолжительность : 520 мс.
Максимальный битрейт : 2000 Кбит/сек
Ширина : 720 пикселей
Высота : 576 пикселей
Соотношение сторон : 4:3
Частота кадров : 25,000 кадров/сек
Стандарт вещания : PAL
Цветовое пространство : YUV
Субдискретизация насыщенности : 4:2:0
Битовая глубина : 8 бит
Тип развёртки : Чересстрочная
Порядок развёртки : Верхнее поле первое
Метод сжатия : С потерями

Текст
Идентификатор : 189 (0xBD)-32 (0x20)
Формат : RLE
Формат/Информация : Run-length encoding
Режим смешивания : DVD-Video
Задержка видео : -80 мс.

Меню

Общее
Полное имя : D:\торенты\Семьянин\VIDEO_TS\VTS_01_0.BUP
Формат : DVD Video
Профиль формата : Program
Размер файла : 22,0 Кбайт
Продолжительность : 5 с. 0 мс.
Режим общего битрейта : Переменный
Общий поток : 36,0 Кбит/сек

Видео
Идентификатор : 224 (0xE0)
Формат : MPEG Video
Версия формата : Version 2
Продолжительность : 5 с. 0 мс.
Вид битрейта : Переменный
Ширина : 720 пикселей
Высота : 576 пикселей
Соотношение сторон : 4:3
Частота кадров : 25,000 кадров/сек
Стандарт вещания : PAL
Метод сжатия : С потерями

Аудио #1
Формат : AC-3
Формат/Информация : Audio Coding 3
Продолжительность : 5 с. 0 мс.
Каналы : 6 каналов
Частота : 48,0 КГц
Метод сжатия : С потерями
Язык : English

Аудио #2
Формат : AC-3
Формат/Информация : Audio Coding 3
Продолжительность : 5 с. 0 мс.
Каналы : 6 каналов
Частота : 48,0 КГц
Метод сжатия : С потерями
Язык : English

Аудио #3
Формат : AC-3
Формат/Информация : Audio Coding 3
Продолжительность : 5 с. 0 мс.
Каналы : 6 каналов
Частота : 48,0 КГц
Метод сжатия : С потерями
Язык : English

Аудио #4
Формат : AC-3
Формат/Информация : Audio Coding 3
Продолжительность : 5 с. 0 мс.
Каналы : 6 каналов
Частота : 48,0 КГц
Метод сжатия : С потерями
Язык : English

Аудио #5
Формат : AC-3
Формат/Информация : Audio Coding 3
Продолжительность : 5 с. 0 мс.
Каналы : 6 каналов
Частота : 48,0 КГц
Метод сжатия : С потерями
Язык : English

Аудио #6
Формат : AC-3
Формат/Информация : Audio Coding 3
Продолжительность : 5 с. 0 мс.
Каналы : 6 каналов
Частота : 48,0 КГц
Метод сжатия : С потерями
Язык : English

Аудио #7
Формат : AC-3
Формат/Информация : Audio Coding 3
Продолжительность : 5 с. 0 мс.
Каналы : 6 каналов
Частота : 48,0 КГц
Метод сжатия : С потерями
Язык : English

Аудио #8
Формат : AC-3
Формат/Информация : Audio Coding 3
Продолжительность : 5 с. 0 мс.
Каналы : 6 каналов
Частота : 48,0 КГц
Метод сжатия : С потерями
Язык : English

Текст #1
Формат : RLE
Формат/Информация : Run-length encoding
Битовая глубина : 2 бит

Текст #2
Формат : RLE
Формат/Информация : Run-length encoding
Битовая глубина : 2 бит

Текст #3
Формат : RLE
Формат/Информация : Run-length encoding
Битовая глубина : 2 бит

Текст #4
Формат : RLE
Формат/Информация : Run-length encoding
Битовая глубина : 2 бит

Текст #5
Формат : RLE
Формат/Информация : Run-length encoding
Битовая глубина : 2 бит

Текст #6
Формат : RLE
Формат/Информация : Run-length encoding
Битовая глубина : 2 бит

Текст #7
Формат : RLE
Формат/Информация : Run-length encoding
Битовая глубина : 2 бит

Текст #8
Формат : RLE
Формат/Информация : Run-length encoding
Битовая глубина : 2 бит

Текст #9
Формат : RLE
Формат/Информация : Run-length encoding
Битовая глубина : 2 бит

Текст #10
Формат : RLE
Формат/Информация : Run-length encoding
Битовая глубина : 2 бит

Текст #11
Формат : RLE
Формат/Информация : Run-length encoding
Битовая глубина : 2 бит

Текст #12
Формат : RLE
Формат/Информация : Run-length encoding
Битовая глубина : 2 бит

Текст #13
Формат : RLE
Формат/Информация : Run-length encoding
Битовая глубина : 2 бит

Текст #14
Формат : RLE
Формат/Информация : Run-length encoding
Битовая глубина : 2 бит

Текст #15
Формат : RLE
Формат/Информация : Run-length encoding
Битовая глубина : 2 бит

Текст #16
Формат : RLE
Формат/Информация : Run-length encoding
Битовая глубина : 2 бит

Текст #17
Формат : RLE
Формат/Информация : Run-length encoding
Битовая глубина : 2 бит

Текст #18
Формат : RLE
Формат/Информация : Run-length encoding
Битовая глубина : 2 бит

Текст #19
Формат : RLE
Формат/Информация : Run-length encoding
Битовая глубина : 2 бит

Текст #20
Формат : RLE
Формат/Информация : Run-length encoding
Битовая глубина : 2 бит

Текст #21
Формат : RLE
Формат/Информация : Run-length encoding
Битовая глубина : 2 бит

Текст #22
Формат : RLE
Формат/Информация : Run-length encoding
Битовая глубина : 2 бит

Текст #23
Формат : RLE
Формат/Информация : Run-length encoding
Битовая глубина : 2 бит

Текст #24
Формат : RLE
Формат/Информация : Run-length encoding
Битовая глубина : 2 бит

Текст #25
Формат : RLE
Формат/Информация : Run-length encoding
Битовая глубина : 2 бит

Текст #26
Формат : RLE
Формат/Информация : Run-length encoding
Битовая глубина : 2 бит

Текст #27
Формат : RLE
Формат/Информация : Run-length encoding
Битовая глубина : 2 бит

Текст #28
Формат : RLE
Формат/Информация : Run-length encoding
Битовая глубина : 2 бит

Текст #29
Формат : RLE
Формат/Информация : Run-length encoding
Битовая глубина : 2 бит

Текст #30
Формат : RLE
Формат/Информация : Run-length encoding
Битовая глубина : 2 бит

Текст #31
Формат : RLE
Формат/Информация : Run-length encoding
Битовая глубина : 2 бит

Текст #32
Формат : RLE
Формат/Информация : Run-length encoding
Битовая глубина : 2 бит

Меню
Продолжительность : 5 с. 0 мс.
00:00:00.000 : Chapter 1

Общее
Полное имя : D:\торенты\Семьянин\VIDEO_TS\VTS_01_0.IFO
Формат : DVD Video
Профиль формата : Program
Размер файла : 22,0 Кбайт
Продолжительность : 5 с. 0 мс.
Режим общего битрейта : Переменный
Общий поток : 36,0 Кбит/сек

Видео
Идентификатор : 224 (0xE0)
Формат : MPEG Video
Версия формата : Version 2
Продолжительность : 5 с. 0 мс.
Вид битрейта : Переменный
Ширина : 720 пикселей
Высота : 576 пикселей
Соотношение сторон : 4:3
Частота кадров : 25,000 кадров/сек
Стандарт вещания : PAL
Метод сжатия : С потерями

Аудио #1
Формат : AC-3
Формат/Информация : Audio Coding 3
Продолжительность : 5 с. 0 мс.
Каналы : 6 каналов
Частота : 48,0 КГц
Метод сжатия : С потерями
Язык : English

Аудио #2
Формат : AC-3
Формат/Информация : Audio Coding 3
Продолжительность : 5 с. 0 мс.
Каналы : 6 каналов
Частота : 48,0 КГц
Метод сжатия : С потерями
Язык : English

Аудио #3
Формат : AC-3
Формат/Информация : Audio Coding 3
Продолжительность : 5 с. 0 мс.
Каналы : 6 каналов
Частота : 48,0 КГц
Метод сжатия : С потерями
Язык : English

Аудио #4
Формат : AC-3
Формат/Информация : Audio Coding 3
Продолжительность : 5 с. 0 мс.
Каналы : 6 каналов
Частота : 48,0 КГц
Метод сжатия : С потерями
Язык : English

Аудио #5
Формат : AC-3
Формат/Информация : Audio Coding 3
Продолжительность : 5 с. 0 мс.
Каналы : 6 каналов
Частота : 48,0 КГц
Метод сжатия : С потерями
Язык : English

Аудио #6
Формат : AC-3
Формат/Информация : Audio Coding 3
Продолжительность : 5 с. 0 мс.
Каналы : 6 каналов
Частота : 48,0 КГц
Метод сжатия : С потерями
Язык : English

Аудио #7
Формат : AC-3
Формат/Информация : Audio Coding 3
Продолжительность : 5 с. 0 мс.
Каналы : 6 каналов
Частота : 48,0 КГц
Метод сжатия : С потерями
Язык : English

Аудио #8
Формат : AC-3
Формат/Информация : Audio Coding 3
Продолжительность : 5 с. 0 мс.
Каналы : 6 каналов
Частота : 48,0 КГц
Метод сжатия : С потерями
Язык : English

Текст #1
Формат : RLE
Формат/Информация : Run-length encoding
Битовая глубина : 2 бит

Текст #2
Формат : RLE
Формат/Информация : Run-length encoding
Битовая глубина : 2 бит

Текст #3
Формат : RLE
Формат/Информация : Run-length encoding
Битовая глубина : 2 бит

Текст #4
Формат : RLE
Формат/Информация : Run-length encoding
Битовая глубина : 2 бит

Текст #5
Формат : RLE
Формат/Информация : Run-length encoding
Битовая глубина : 2 бит

Текст #6
Формат : RLE
Формат/Информация : Run-length encoding
Битовая глубина : 2 бит

Текст #7
Формат : RLE
Формат/Информация : Run-length encoding
Битовая глубина : 2 бит

Текст #8
Формат : RLE
Формат/Информация : Run-length encoding
Битовая глубина : 2 бит

Текст #9
Формат : RLE
Формат/Информация : Run-length encoding
Битовая глубина : 2 бит

Текст #10
Формат : RLE
Формат/Информация : Run-length encoding
Битовая глубина : 2 бит

Текст #11
Формат : RLE
Формат/Информация : Run-length encoding
Битовая глубина : 2 бит

Текст #12
Формат : RLE
Формат/Информация : Run-length encoding
Битовая глубина : 2 бит

Текст #13
Формат : RLE
Формат/Информация : Run-length encoding
Битовая глубина : 2 бит

Текст #14
Формат : RLE
Формат/Информация : Run-length encoding
Битовая глубина : 2 бит

Текст #15
Формат : RLE
Формат/Информация : Run-length encoding
Битовая глубина : 2 бит

Текст #16
Формат : RLE
Формат/Информация : Run-length encoding
Битовая глубина : 2 бит

Текст #17
Формат : RLE
Формат/Информация : Run-length encoding
Битовая глубина : 2 бит

Текст #18
Формат : RLE
Формат/Информация : Run-length encoding
Битовая глубина : 2 бит

Текст #19
Формат : RLE
Формат/Информация : Run-length encoding
Битовая глубина : 2 бит

Текст #20
Формат : RLE
Формат/Информация : Run-length encoding
Битовая глубина : 2 бит

Текст #21
Формат : RLE
Формат/Информация : Run-length encoding
Битовая глубина : 2 бит

Текст #22
Формат : RLE
Формат/Информация : Run-length encoding
Битовая глубина : 2 бит

Текст #23
Формат : RLE
Формат/Информация : Run-length encoding
Битовая глубина : 2 бит

Текст #24
Формат : RLE
Формат/Информация : Run-length encoding
Битовая глубина : 2 бит

Текст #25
Формат : RLE
Формат/Информация : Run-length encoding
Битовая глубина : 2 бит

Текст #26
Формат : RLE
Формат/Информация : Run-length encoding
Битовая глубина : 2 бит

Текст #27
Формат : RLE
Формат/Информация : Run-length encoding
Битовая глубина : 2 бит

Текст #28
Формат : RLE
Формат/Информация : Run-length encoding
Битовая глубина : 2 бит

Текст #29
Формат : RLE
Формат/Информация : Run-length encoding
Битовая глубина : 2 бит

Текст #30
Формат : RLE
Формат/Информация : Run-length encoding
Битовая глубина : 2 бит

Текст #31
Формат : RLE
Формат/Информация : Run-length encoding
Битовая глубина : 2 бит

Текст #32
Формат : RLE
Формат/Информация : Run-length encoding
Битовая глубина : 2 бит

Меню
Продолжительность : 5 с. 0 мс.
00:00:00.000 : Chapter 1

Общее
Полное имя : D:\торенты\Семьянин\VIDEO_TS\VTS_01_0.VOB
Формат : MPEG-PS
Размер файла : 128 Мбайт
Продолжительность : 39 с.
Режим общего битрейта : Переменный
Общий поток : 27,0 Мбит/сек

Видео
Идентификатор : 224 (0xE0)
Формат : MPEG Video
Версия формата : Version 2
Профиль формата : Main@Main
Параметр BVOP формата : Да
Параметр матрицы формата : По умолчанию
Параметр GOP формата : M=3, N=12
Продолжительность : 39 с.
Вид битрейта : Переменный
Битрейт : 26,2 Мбит/сек
Максимальный битрейт : 8000 Кбит/сек
Ширина : 720 пикселей
Высота : 576 пикселей
Соотношение сторон : 16:9
Частота кадров : 25,000 кадров/сек
Стандарт вещания : PAL
Цветовое пространство : YUV
Субдискретизация насыщенности : 4:2:0
Битовая глубина : 8 бит
Тип развёртки : Прогрессивная
Метод сжатия : С потерями
Бит/(Пиксели*Кадры) : 2.531
Размер потока : 125 Мбайт (97%)

Аудио
Идентификатор : 189 (0xBD)-128 (0x80)
Формат : AC-3
Формат/Информация : Audio Coding 3
Расширение режима : CM (complete main)
Режим смешивания : DVD-Video
Продолжительность : 39 с.
Вид битрейта : Постоянный
Битрейт : 192 Кбит/сек
Каналы : 2 канала
Расположение каналов : Front: L R
Частота : 48,0 КГц
Битовая глубина : 16 бит
Метод сжатия : С потерями
Задержка видео : -80 мс.
Размер потока : 937 Кбайт (1%)

Текст #1
Идентификатор : 189 (0xBD)-32 (0x20)
Формат : RLE
Формат/Информация : Run-length encoding
Режим смешивания : DVD-Video
Задержка видео : -80 мс.

Текст #2
Идентификатор : 189 (0xBD)-33 (0x21)
Формат : RLE
Формат/Информация : Run-length encoding
Режим смешивания : DVD-Video
Задержка видео : -80 мс.

Меню

Общее
Полное имя : D:\торенты\Семьянин\VIDEO_TS\VTS_01_1.VOB
Формат : MPEG-PS
Размер файла : 4,24 Мбайт
Продолжительность : 4 с. 920 мс.
Общий поток : 7236 Кбит/сек

Видео
Идентификатор : 224 (0xE0)
Формат : MPEG Video
Версия формата : Version 2
Профиль формата : Main@Main
Параметр BVOP формата : Да
Параметр матрицы формата : По умолчанию
Параметр GOP формата : M=3, N=12
Продолжительность : 4 с. 920 мс.
Битрейт : 7000 Кбит/сек
Ширина : 720 пикселей
Высота : 576 пикселей
Соотношение сторон : 4:3
Частота кадров : 25,000 кадров/сек
Стандарт вещания : PAL
Цветовое пространство : YUV
Субдискретизация насыщенности : 4:2:0
Битовая глубина : 8 бит
Тип развёртки : Чересстрочная
Порядок развёртки : Нижнее поле первое
Метод сжатия : С потерями
Бит/(Пиксели*Кадры) : 0.675
Размер потока : 4,16 Мбайт (98%)

Меню

Общее
Полное имя : D:\торенты\Семьянин\VIDEO_TS\VTS_02_0.BUP
Формат : DVD Video
Профиль формата : Program
Размер файла : 18,0 Кбайт
Продолжительность : 15 с.
Режим общего битрейта : Переменный
Общий поток : 9830 бит/сек

Видео
Идентификатор : 224 (0xE0)
Формат : MPEG Video
Версия формата : Version 2
Продолжительность : 15 с.
Вид битрейта : Переменный
Ширина : 720 пикселей
Высота : 576 пикселей
Соотношение сторон : 16:9
Частота кадров : 25,000 кадров/сек
Стандарт вещания : PAL
Метод сжатия : С потерями

Аудио
Идентификатор : 128 (0x80)
Формат : AC-3
Формат/Информация : Audio Coding 3
Продолжительность : 15 с.
Каналы : 6 каналов
Частота : 48,0 КГц
Метод сжатия : С потерями

Текст
Идентификатор : 32 (0x20)
Формат : RLE
Формат/Информация : Run-length encoding
Битовая глубина : 2 бит

Меню
Продолжительность : 15 с.
00:00:00.000 : Chapter 1
List (Audio) : 0
List (Subtitles 4/3) : 0
List (Subtitles Wide) : 0
List (Subtitles Letterbox) : 0
List (Subtitles Pan&Scan) : 0

Общее
Полное имя : D:\торенты\Семьянин\VIDEO_TS\VTS_02_0.IFO
Формат : DVD Video
Профиль формата : Program
Размер файла : 18,0 Кбайт
Продолжительность : 15 с.
Режим общего битрейта : Переменный
Общий поток : 9830 бит/сек

Видео
Идентификатор : 224 (0xE0)
Формат : MPEG Video
Версия формата : Version 2
Продолжительность : 15 с.
Вид битрейта : Переменный
Ширина : 720 пикселей
Высота : 576 пикселей
Соотношение сторон : 16:9
Частота кадров : 25,000 кадров/сек
Стандарт вещания : PAL
Метод сжатия : С потерями

Аудио
Идентификатор : 128 (0x80)
Формат : AC-3
Формат/Информация : Audio Coding 3
Продолжительность : 15 с.
Каналы : 6 каналов
Частота : 48,0 КГц
Метод сжатия : С потерями

Текст
Идентификатор : 32 (0x20)
Формат : RLE
Формат/Информация : Run-length encoding
Битовая глубина : 2 бит

Меню
Продолжительность : 15 с.
00:00:00.000 : Chapter 1
List (Audio) : 0
List (Subtitles 4/3) : 0
List (Subtitles Wide) : 0
List (Subtitles Letterbox) : 0
List (Subtitles Pan&Scan) : 0

Общее
Полное имя : D:\торенты\Семьянин\VIDEO_TS\VTS_02_0.VOB
Формат : MPEG-PS
Размер файла : 154 Кбайт
Продолжительность : 520 мс.
Общий поток : 2426 Кбит/сек

Видео
Идентификатор : 224 (0xE0)
Формат : MPEG Video
Версия формата : Version 2
Профиль формата : Main@Main
Параметр BVOP формата : Да
Параметр матрицы формата : Выборочная
Продолжительность : 520 мс.
Максимальный битрейт : 2000 Кбит/сек
Ширина : 720 пикселей
Высота : 576 пикселей
Соотношение сторон : 4:3
Частота кадров : 25,000 кадров/сек
Стандарт вещания : PAL
Цветовое пространство : YUV
Субдискретизация насыщенности : 4:2:0
Битовая глубина : 8 бит
Тип развёртки : Чересстрочная
Порядок развёртки : Верхнее поле первое
Метод сжатия : С потерями

Текст
Идентификатор : 189 (0xBD)-32 (0x20)
Формат : RLE
Формат/Информация : Run-length encoding
Режим смешивания : DVD-Video
Задержка видео : -80 мс.

Меню

Общее
Полное имя : D:\торенты\Семьянин\VIDEO_TS\VTS_02_1.VOB
Формат : MPEG-PS
Размер файла : 15,4 Мбайт
Продолжительность : 14 с.
Общий поток : 8654 Кбит/сек

Видео
Идентификатор : 224 (0xE0)
Формат : MPEG Video
Версия формата : Version 2
Профиль формата : Main@Main
Параметр BVOP формата : Да
Параметр матрицы формата : По умолчанию
Продолжительность : 14 с.
Битрейт : 8000 Кбит/сек
Ширина : 720 пикселей
Высота : 576 пикселей
Соотношение сторон : 16:9
Частота кадров : 25,000 кадров/сек
Стандарт вещания : PAL
Цветовое пространство : YUV
Субдискретизация насыщенности : 4:2:0
Битовая глубина : 8 бит
Тип развёртки : Прогрессивная
Метод сжатия : С потерями
Бит/(Пиксели*Кадры) : 0.772
Размер потока : 14,3 Мбайт (93%)

Аудио
Идентификатор : 189 (0xBD)-128 (0x80)
Формат : AC-3
Формат/Информация : Audio Coding 3
Расширение режима : CM (complete main)
Режим смешивания : DVD-Video
Продолжительность : 14 с.
Вид битрейта : Постоянный
Битрейт : 448 Кбит/сек
Каналы : 6 каналов
Расположение каналов : Front: L C R, Side: L R, LFE
Частота : 48,0 КГц
Битовая глубина : 16 бит
Метод сжатия : С потерями
Задержка видео : -80 мс.
Размер потока : 810 Кбайт (5%)

Текст
Идентификатор : 189 (0xBD)-32 (0x20)
Формат : RLE
Формат/Информация : Run-length encoding
Режим смешивания : DVD-Video
Задержка видео : 1 с. 640 мс.

Меню

Общее
Полное имя : D:\торенты\Семьянин\VIDEO_TS\VTS_03_0.BUP
Формат : DVD Video
Профиль формата : Program
Размер файла : 18,0 Кбайт
Продолжительность : 20 с.
Режим общего битрейта : Переменный
Общий поток : 7035 бит/сек

Видео
Идентификатор : 224 (0xE0)
Формат : MPEG Video
Версия формата : Version 2
Продолжительность : 20 с.
Вид битрейта : Переменный
Ширина : 720 пикселей
Высота : 576 пикселей
Соотношение сторон : 4:3
Частота кадров : 25,000 кадров/сек
Стандарт вещания : PAL
Метод сжатия : С потерями

Аудио #1
Идентификатор : 0 (0x0)
Формат : MPEG Audio
Профиль формата : Version 1
Продолжительность : 20 с.
Каналы : 2 канала
Частота : 48,0 КГц
Метод сжатия : С потерями

Аудио #2
Идентификатор : 1 (0x1)
Формат : MPEG Audio
Профиль формата : Version 1
Продолжительность : 20 с.
Каналы : 2 канала
Частота : 48,0 КГц
Метод сжатия : С потерями

Меню
Продолжительность : 20 с.
00:00:00.000 : Chapter 1
List (Audio) : 0 / 1

Общее
Полное имя : D:\торенты\Семьянин\VIDEO_TS\VTS_03_0.IFO
Формат : DVD Video
Профиль формата : Program
Размер файла : 18,0 Кбайт
Продолжительность : 20 с.
Режим общего битрейта : Переменный
Общий поток : 7035 бит/сек

Видео
Идентификатор : 224 (0xE0)
Формат : MPEG Video
Версия формата : Version 2
Продолжительность : 20 с.
Вид битрейта : Переменный
Ширина : 720 пикселей
Высота : 576 пикселей
Соотношение сторон : 4:3
Частота кадров : 25,000 кадров/сек
Стандарт вещания : PAL
Метод сжатия : С потерями

Аудио #1
Идентификатор : 0 (0x0)
Формат : MPEG Audio
Профиль формата : Version 1
Продолжительность : 20 с.
Каналы : 2 канала
Частота : 48,0 КГц
Метод сжатия : С потерями

Аудио #2
Идентификатор : 1 (0x1)
Формат : MPEG Audio
Профиль формата : Version 1
Продолжительность : 20 с.
Каналы : 2 канала
Частота : 48,0 КГц
Метод сжатия : С потерями

Меню
Продолжительность : 20 с.
00:00:00.000 : Chapter 1
List (Audio) : 0 / 1

Общее
Полное имя : D:\торенты\Семьянин\VIDEO_TS\VTS_03_0.VOB
Формат : MPEG-PS
Размер файла : 154 Кбайт
Продолжительность : 520 мс.
Общий поток : 2426 Кбит/сек

Видео
Идентификатор : 224 (0xE0)
Формат : MPEG Video
Версия формата : Version 2
Профиль формата : Main@Main
Параметр BVOP формата : Да
Параметр матрицы формата : Выборочная
Продолжительность : 520 мс.
Максимальный битрейт : 2000 Кбит/сек
Ширина : 720 пикселей
Высота : 576 пикселей
Соотношение сторон : 4:3
Частота кадров : 25,000 кадров/сек
Стандарт вещания : PAL
Цветовое пространство : YUV
Субдискретизация насыщенности : 4:2:0
Битовая глубина : 8 бит
Тип развёртки : Чересстрочная
Порядок развёртки : Верхнее поле первое
Метод сжатия : С потерями

Текст
Идентификатор : 189 (0xBD)-32 (0x20)
Формат : RLE
Формат/Информация : Run-length encoding
Режим смешивания : DVD-Video
Задержка видео : -80 мс.

Меню

Общее
Полное имя : D:\торенты\Семьянин\VIDEO_TS\VTS_03_1.VOB
Формат : MPEG-PS
Размер файла : 14,8 Мбайт
Продолжительность : 20 с.
Режим общего битрейта : Переменный
Общий поток : 5938 Кбит/сек

Видео
Идентификатор : 224 (0xE0)
Формат : MPEG Video
Версия формата : Version 2
Профиль формата : Main@Main
Параметр BVOP формата : Да
Параметр матрицы формата : По умолчанию
Параметр GOP формата : M=3, N=12
Продолжительность : 20 с.
Вид битрейта : Переменный
Битрейт : 5371 Кбит/сек
Максимальный битрейт : 9500 Кбит/сек
Ширина : 720 пикселей
Высота : 576 пикселей
Соотношение сторон : 4:3
Частота кадров : 25,000 кадров/сек
Стандарт вещания : PAL
Цветовое пространство : YUV
Субдискретизация насыщенности : 4:2:0
Битовая глубина : 8 бит
Тип развёртки : Чересстрочная
Порядок развёртки : Нижнее поле первое
Метод сжатия : С потерями
Бит/(Пиксели*Кадры) : 0.518
Размер потока : 13,4 Мбайт (90%)

Аудио #1
Идентификатор : 192 (0xC0)
Формат : MPEG Audio
Версия формата : Version 1
Профиль формата : Layer 2
Продолжительность : 20 с.
Вид битрейта : Постоянный
Битрейт : 224 Кбит/сек
Каналы : 2 канала
Частота : 48,0 КГц
Метод сжатия : С потерями
Размер потока : 549 Кбайт (4%)

Аудио #2
Идентификатор : 193 (0xC1)
Формат : MPEG Audio
Версия формата : Version 1
Профиль формата : Layer 2
Продолжительность : 20 с.
Вид битрейта : Постоянный
Битрейт : 224 Кбит/сек
Каналы : 2 канала
Частота : 48,0 КГц
Метод сжатия : С потерями
Размер потока : 549 Кбайт (4%)

Меню

Общее
Полное имя : D:\торенты\Семьянин\VIDEO_TS\VTS_04_0.BUP
Формат : DVD Video
Профиль формата : Program
Размер файла : 70,0 Кбайт
Продолжительность : 2 ч. 0 м.
Режим общего битрейта : Переменный
Общий поток : 79 бит/сек

Видео
Идентификатор : 224 (0xE0)
Формат : MPEG Video
Версия формата : Version 2
Продолжительность : 2 ч. 0 м.
Вид битрейта : Переменный
Ширина : 720 пикселей
Высота : 576 пикселей
Соотношение сторон : 16:9
Частота кадров : 25,000 кадров/сек
Стандарт вещания : PAL
Метод сжатия : С потерями

Аудио #1
Идентификатор : 128 (0x80)
Формат : AC-3
Формат/Информация : Audio Coding 3
Продолжительность : 2 ч. 0 м.
Каналы : 6 каналов
Частота : 48,0 КГц
Метод сжатия : С потерями
Язык : Russian

Аудио #2
Идентификатор : 129 (0x81)
Формат : AC-3
Формат/Информация : Audio Coding 3
Продолжительность : 2 ч. 0 м.
Каналы : 6 каналов
Частота : 48,0 КГц
Метод сжатия : С потерями
Язык : English

Меню
Продолжительность : 2 ч. 0 м.
00:00:00.000 : Chapter 1
00:11:09.240 : Chapter 2
00:16:04.720 : Chapter 3
00:25:12.560 : Chapter 4
00:32:53.720 : Chapter 5
00:38:33.200 : Chapter 6
00:51:30.040 : Chapter 7
00:57:42.200 : Chapter 8
01:07:43.840 : Chapter 9
01:18:23.720 : Chapter 10
01:34:04.560 : Chapter 11
01:40:23.920 : Chapter 12
List (Audio) : 0 / 1

Общее
Полное имя : D:\торенты\Семьянин\VIDEO_TS\VTS_04_0.IFO
Формат : DVD Video
Профиль формата : Program
Размер файла : 70,0 Кбайт
Продолжительность : 2 ч. 0 м.
Режим общего битрейта : Переменный
Общий поток : 79 бит/сек

Видео
Идентификатор : 224 (0xE0)
Формат : MPEG Video
Версия формата : Version 2
Продолжительность : 2 ч. 0 м.
Вид битрейта : Переменный
Ширина : 720 пикселей
Высота : 576 пикселей
Соотношение сторон : 16:9
Частота кадров : 25,000 кадров/сек
Стандарт вещания : PAL
Метод сжатия : С потерями

Аудио #1
Идентификатор : 128 (0x80)
Формат : AC-3
Формат/Информация : Audio Coding 3
Продолжительность : 2 ч. 0 м.
Каналы : 6 каналов
Частота : 48,0 КГц
Метод сжатия : С потерями
Язык : Russian

Аудио #2
Идентификатор : 129 (0x81)
Формат : AC-3
Формат/Информация : Audio Coding 3
Продолжительность : 2 ч. 0 м.
Каналы : 6 каналов
Частота : 48,0 КГц
Метод сжатия : С потерями
Язык : English

Меню
Продолжительность : 2 ч. 0 м.
00:00:00.000 : Chapter 1
00:11:09.240 : Chapter 2
00:16:04.720 : Chapter 3
00:25:12.560 : Chapter 4
00:32:53.720 : Chapter 5
00:38:33.200 : Chapter 6
00:51:30.040 : Chapter 7
00:57:42.200 : Chapter 8
01:07:43.840 : Chapter 9
01:18:23.720 : Chapter 10
01:34:04.560 : Chapter 11
01:40:23.920 : Chapter 12
List (Audio) : 0 / 1

Общее
Полное имя : D:\торенты\Семьянин\VIDEO_TS\VTS_04_0.VOB
Формат : MPEG-PS
Размер файла : 154 Кбайт
Продолжительность : 520 мс.
Общий поток : 2426 Кбит/сек

Видео
Идентификатор : 224 (0xE0)
Формат : MPEG Video
Версия формата : Version 2
Профиль формата : Main@Main
Параметр BVOP формата : Да
Параметр матрицы формата : Выборочная
Продолжительность : 520 мс.
Максимальный битрейт : 2000 Кбит/сек
Ширина : 720 пикселей
Высота : 576 пикселей
Соотношение сторон : 4:3
Частота кадров : 25,000 кадров/сек
Стандарт вещания : PAL
Цветовое пространство : YUV
Субдискретизация насыщенности : 4:2:0
Битовая глубина : 8 бит
Тип развёртки : Чересстрочная
Порядок развёртки : Верхнее поле первое
Метод сжатия : С потерями

Текст
Идентификатор : 189 (0xBD)-32 (0x20)
Формат : RLE
Формат/Информация : Run-length encoding
Режим смешивания : DVD-Video
Задержка видео : -80 мс.

Меню

Общее
Полное имя : D:\торенты\Семьянин\VIDEO_TS\VTS_04_1.VOB
Формат : MPEG-PS
Размер файла : 1024 Мбайт
Продолжительность : 29 м.
Режим общего битрейта : Переменный
Общий поток : 4788 Кбит/сек

Видео
Идентификатор : 224 (0xE0)
Формат : MPEG Video
Версия формата : Version 2
Профиль формата : Main@Main
Параметр BVOP формата : Да
Параметр матрицы формата : Выборочная
Продолжительность : 29 м.
Вид битрейта : Переменный
Битрейт : 3796 Кбит/сек
Максимальный битрейт : 8000 Кбит/сек
Ширина : 720 пикселей
Высота : 576 пикселей
Соотношение сторон : 16:9
Частота кадров : 25,000 кадров/сек
Стандарт вещания : PAL
Цветовое пространство : YUV
Субдискретизация насыщенности : 4:2:0
Битовая глубина : 8 бит
Тип развёртки : Прогрессивная
Метод сжатия : С потерями
Бит/(Пиксели*Кадры) : 0.366
Размер потока : 812 Мбайт (79%)

Аудио #1
Идентификатор : 189 (0xBD)-128 (0x80)
Формат : AC-3
Формат/Информация : Audio Coding 3
Расширение режима : CM (complete main)
Режим смешивания : DVD-Video
Продолжительность : 29 м.
Вид битрейта : Постоянный
Битрейт : 448 Кбит/сек
Каналы : 6 каналов
Расположение каналов : Front: L C R, Side: L R, LFE
Частота : 48,0 КГц
Битовая глубина : 16 бит
Метод сжатия : С потерями
Размер потока : 95,8 Мбайт (9%)

Аудио #2
Идентификатор : 189 (0xBD)-129 (0x81)
Формат : AC-3
Формат/Информация : Audio Coding 3
Расширение режима : CM (complete main)
Режим смешивания : DVD-Video
Продолжительность : 29 м.
Вид битрейта : Постоянный
Битрейт : 448 Кбит/сек
Каналы : 6 каналов
Расположение каналов : Front: L C R, Side: L R, LFE
Частота : 48,0 КГц
Битовая глубина : 16 бит
Метод сжатия : С потерями
Размер потока : 95,8 Мбайт (9%)

Меню

Общее
Полное имя : D:\торенты\Семьянин\VIDEO_TS\VTS_04_2.VOB
Формат : MPEG-PS
Размер файла : 1024 Мбайт
Продолжительность : 29 м.
Режим общего битрейта : Переменный
Общий поток : 4792 Кбит/сек

Видео
Идентификатор : 224 (0xE0)
Формат : MPEG Video
Версия формата : Version 2
Профиль формата : Main@Main
Параметр BVOP формата : Да
Параметр матрицы формата : Выборочная
Параметр GOP формата : M=3, N=15
Продолжительность : 29 м.
Вид битрейта : Переменный
Битрейт : 3801 Кбит/сек
Максимальный битрейт : 8000 Кбит/сек
Ширина : 720 пикселей
Высота : 576 пикселей
Соотношение сторон : 16:9
Частота кадров : 25,000 кадров/сек
Стандарт вещания : PAL
Цветовое пространство : YUV
Субдискретизация насыщенности : 4:2:0
Битовая глубина : 8 бит
Тип развёртки : Прогрессивная
Метод сжатия : С потерями
Бит/(Пиксели*Кадры) : 0.367
Размер потока : 812 Мбайт (79%)

Аудио #1
Идентификатор : 189 (0xBD)-128 (0x80)
Формат : AC-3
Формат/Информация : Audio Coding 3
Расширение режима : CM (complete main)
Режим смешивания : DVD-Video
Продолжительность : 29 м.
Вид битрейта : Постоянный
Битрейт : 448 Кбит/сек
Каналы : 6 каналов
Расположение каналов : Front: L C R, Side: L R, LFE
Частота : 48,0 КГц
Битовая глубина : 16 бит
Метод сжатия : С потерями
Задержка видео : -856 мс.
Размер потока : 95,7 Мбайт (9%)

Аудио #2
Идентификатор : 189 (0xBD)-129 (0x81)
Формат : AC-3
Формат/Информация : Audio Coding 3
Расширение режима : CM (complete main)
Режим смешивания : DVD-Video
Продолжительность : 29 м.
Вид битрейта : Постоянный
Битрейт : 448 Кбит/сек
Каналы : 6 каналов
Расположение каналов : Front: L C R, Side: L R, LFE
Частота : 48,0 КГц
Битовая глубина : 16 бит
Метод сжатия : С потерями
Задержка видео : -856 мс.
Размер потока : 95,7 Мбайт (9%)

Меню

Общее
Полное имя : D:\торенты\Семьянин\VIDEO_TS\VTS_04_3.VOB
Формат : MPEG-PS
Размер файла : 1024 Мбайт
Продолжительность : 29 м.
Режим общего битрейта : Переменный
Общий поток : 4792 Кбит/сек

Видео
Идентификатор : 224 (0xE0)
Формат : MPEG Video
Версия формата : Version 2
Профиль формата : Main@Main
Параметр BVOP формата : Да
Параметр матрицы формата : Выборочная
Параметр GOP формата : M=3, N=15
Продолжительность : 29 м.
Вид битрейта : Переменный
Битрейт : 3801 Кбит/сек
Максимальный битрейт : 8000 Кбит/сек
Ширина : 720 пикселей
Высота : 576 пикселей
Соотношение сторон : 16:9
Частота кадров : 25,000 кадров/сек
Стандарт вещания : PAL
Цветовое пространство : YUV
Субдискретизация насыщенности : 4:2:0
Битовая глубина : 8 бит
Тип развёртки : Прогрессивная
Метод сжатия : С потерями
Бит/(Пиксели*Кадры) : 0.367
Размер потока : 812 Мбайт (79%)

Аудио #1
Идентификатор : 189 (0xBD)-128 (0x80)
Формат : AC-3
Формат/Информация : Audio Coding 3
Расширение режима : CM (complete main)
Режим смешивания : DVD-Video
Продолжительность : 29 м.
Вид битрейта : Постоянный
Битрейт : 448 Кбит/сек
Каналы : 6 каналов
Расположение каналов : Front: L C R, Side: L R, LFE
Частота : 48,0 КГц
Битовая глубина : 16 бит
Метод сжатия : С потерями
Задержка видео : -264 мс.
Размер потока : 95,7 Мбайт (9%)

Аудио #2
Идентификатор : 189 (0xBD)-129 (0x81)
Формат : AC-3
Формат/Информация : Audio Coding 3
Расширение режима : CM (complete main)
Режим смешивания : DVD-Video
Продолжительность : 29 м.
Вид битрейта : Постоянный
Битрейт : 448 Кбит/сек
Каналы : 6 каналов
Расположение каналов : Front: L C R, Side: L R, LFE
Частота : 48,0 КГц
Битовая глубина : 16 бит
Метод сжатия : С потерями
Задержка видео : -296 мс.
Размер потока : 95,7 Мбайт (9%)

Меню

Общее
Полное имя : D:\торенты\Семьянин\VIDEO_TS\VTS_04_4.VOB
Формат : MPEG-PS
Размер файла : 1024 Мбайт
Продолжительность : 29 м.
Режим общего битрейта : Переменный
Общий поток : 4793 Кбит/сек

Видео
Идентификатор : 224 (0xE0)
Формат : MPEG Video
Версия формата : Version 2
Профиль формата : Main@Main
Параметр BVOP формата : Да
Параметр матрицы формата : Выборочная
Параметр GOP формата : M=3, N=15
Продолжительность : 29 м.
Вид битрейта : Переменный
Битрейт : 3802 Кбит/сек
Максимальный битрейт : 8000 Кбит/сек
Ширина : 720 пикселей
Высота : 576 пикселей
Соотношение сторон : 16:9
Частота кадров : 25,000 кадров/сек
Стандарт вещания : PAL
Цветовое пространство : YUV
Субдискретизация насыщенности : 4:2:0
Битовая глубина : 8 бит
Тип развёртки : Прогрессивная
Метод сжатия : С потерями
Бит/(Пиксели*Кадры) : 0.367
Размер потока : 812 Мбайт (79%)

Аудио #1
Идентификатор : 189 (0xBD)-128 (0x80)
Формат : AC-3
Формат/Информация : Audio Coding 3
Расширение режима : CM (complete main)
Режим смешивания : DVD-Video
Продолжительность : 29 м.
Вид битрейта : Постоянный
Битрейт : 448 Кбит/сек
Каналы : 6 каналов
Расположение каналов : Front: L C R, Side: L R, LFE
Частота : 48,0 КГц
Битовая глубина : 16 бит
Метод сжатия : С потерями
Задержка видео : -752 мс.
Размер потока : 95,7 Мбайт (9%)

Аудио #2
Идентификатор : 189 (0xBD)-129 (0x81)
Формат : AC-3
Формат/Информация : Audio Coding 3
Расширение режима : CM (complete main)
Режим смешивания : DVD-Video
Продолжительность : 29 м.
Вид битрейта : Постоянный
Битрейт : 448 Кбит/сек
Каналы : 6 каналов
Расположение каналов : Front: L C R, Side: L R, LFE
Частота : 48,0 КГц
Битовая глубина : 16 бит
Метод сжатия : С потерями
Задержка видео : -752 мс.
Размер потока : 95,7 Мбайт (9%)

Меню

Общее
Полное имя : D:\торенты\Семьянин\VIDEO_TS\VTS_04_5.VOB
Формат : MPEG-PS
Размер файла : 35,8 Мбайт
Продолжительность : 1 м. 5 с.
Режим общего битрейта : Переменный
Общий поток : 4564 Кбит/сек

Видео
Идентификатор : 224 (0xE0)
Формат : MPEG Video
Версия формата : Version 2
Профиль формата : Main@Main
Параметр BVOP формата : Да
Параметр матрицы формата : Выборочная
Параметр GOP формата : M=3, N=15
Продолжительность : 1 м. 5 с.
Вид битрейта : Переменный
Битрейт : 3577 Кбит/сек
Максимальный битрейт : 8000 Кбит/сек
Ширина : 720 пикселей
Высота : 576 пикселей
Соотношение сторон : 16:9
Частота кадров : 25,000 кадров/сек
Стандарт вещания : PAL
Цветовое пространство : YUV
Субдискретизация насыщенности : 4:2:0
Битовая глубина : 8 бит
Тип развёртки : Прогрессивная
Метод сжатия : С потерями
Бит/(Пиксели*Кадры) : 0.345
Размер потока : 28,0 Мбайт (78%)

Аудио #1
Идентификатор : 189 (0xBD)-128 (0x80)
Формат : AC-3
Формат/Информация : Audio Coding 3
Расширение режима : CM (complete main)
Режим смешивания : DVD-Video
Продолжительность : 1 м. 5 с.
Вид битрейта : Постоянный
Битрейт : 448 Кбит/сек
Каналы : 6 каналов
Расположение каналов : Front: L C R, Side: L R, LFE
Частота : 48,0 КГц
Битовая глубина : 16 бит
Метод сжатия : С потерями
Задержка видео : -776 мс.
Размер потока : 3,52 Мбайт (10%)

Аудио #2
Идентификатор : 189 (0xBD)-129 (0x81)
Формат : AC-3
Формат/Информация : Audio Coding 3
Расширение режима : CM (complete main)
Режим смешивания : DVD-Video
Продолжительность : 1 м. 5 с.
Вид битрейта : Постоянный
Битрейт : 448 Кбит/сек
Каналы : 6 каналов
Расположение каналов : Front: L C R, Side: L R, LFE
Частота : 48,0 КГц
Битовая глубина : 16 бит
Метод сжатия : С потерями
Задержка видео : -776 мс.
Размер потока : 3,52 Мбайт (10%)

Меню

Общее
Полное имя : D:\торенты\Семьянин\VIDEO_TS\VTS_05_0.BUP
Формат : DVD Video
Профиль формата : Program
Размер файла : 18,0 Кбайт
Продолжительность : 20 с.
Режим общего битрейта : Переменный
Общий поток : 7035 бит/сек

Видео
Идентификатор : 224 (0xE0)
Формат : MPEG Video
Версия формата : Version 2
Продолжительность : 20 с.
Вид битрейта : Переменный
Ширина : 720 пикселей
Высота : 576 пикселей
Соотношение сторон : 4:3
Частота кадров : 25,000 кадров/сек
Стандарт вещания : PAL
Метод сжатия : С потерями

Аудио #1
Идентификатор : 0 (0x0)
Формат : MPEG Audio
Профиль формата : Version 1
Продолжительность : 20 с.
Каналы : 2 канала
Частота : 48,0 КГц
Метод сжатия : С потерями

Аудио #2
Идентификатор : 1 (0x1)
Формат : MPEG Audio
Профиль формата : Version 1
Продолжительность : 20 с.
Каналы : 2 канала
Частота : 48,0 КГц
Метод сжатия : С потерями

Меню
Продолжительность : 20 с.
00:00:00.000 : Chapter 1
List (Audio) : 0 / 1

Общее
Полное имя : D:\торенты\Семьянин\VIDEO_TS\VTS_05_0.IFO
Формат : DVD Video
Профиль формата : Program
Размер файла : 18,0 Кбайт
Продолжительность : 20 с.
Режим общего битрейта : Переменный
Общий поток : 7035 бит/сек

Видео
Идентификатор : 224 (0xE0)
Формат : MPEG Video
Версия формата : Version 2
Продолжительность : 20 с.
Вид битрейта : Переменный
Ширина : 720 пикселей
Высота : 576 пикселей
Соотношение сторон : 4:3
Частота кадров : 25,000 кадров/сек
Стандарт вещания : PAL
Метод сжатия : С потерями

Аудио #1
Идентификатор : 0 (0x0)
Формат : MPEG Audio
Профиль формата : Version 1
Продолжительность : 20 с.
Каналы : 2 канала
Частота : 48,0 КГц
Метод сжатия : С потерями

Аудио #2
Идентификатор : 1 (0x1)
Формат : MPEG Audio
Профиль формата : Version 1
Продолжительность : 20 с.
Каналы : 2 канала
Частота : 48,0 КГц
Метод сжатия : С потерями

Меню
Продолжительность : 20 с.
00:00:00.000 : Chapter 1
List (Audio) : 0 / 1

Общее
Полное имя : D:\торенты\Семьянин\VIDEO_TS\VTS_05_0.VOB
Формат : MPEG-PS
Размер файла : 154 Кбайт
Продолжительность : 520 мс.
Общий поток : 2426 Кбит/сек

Видео
Идентификатор : 224 (0xE0)
Формат : MPEG Video
Версия формата : Version 2
Профиль формата : Main@Main
Параметр BVOP формата : Да
Параметр матрицы формата : Выборочная
Продолжительность : 520 мс.
Максимальный битрейт : 2000 Кбит/сек
Ширина : 720 пикселей
Высота : 576 пикселей
Соотношение сторон : 4:3
Частота кадров : 25,000 кадров/сек
Стандарт вещания : PAL
Цветовое пространство : YUV
Субдискретизация насыщенности : 4:2:0
Битовая глубина : 8 бит
Тип развёртки : Чересстрочная
Порядок развёртки : Верхнее поле первое
Метод сжатия : С потерями

Текст
Идентификатор : 189 (0xBD)-32 (0x20)
Формат : RLE
Формат/Информация : Run-length encoding
Режим смешивания : DVD-Video
Задержка видео : -80 мс.

Меню

Общее
Полное имя : D:\торенты\Семьянин\VIDEO_TS\VTS_05_1.VOB
Формат : MPEG-PS
Размер файла : 14,7 Мбайт
Продолжительность : 20 с.
Режим общего битрейта : Переменный
Общий поток : 5877 Кбит/сек

Видео
Идентификатор : 224 (0xE0)
Формат : MPEG Video
Версия формата : Version 2
Профиль формата : Main@Main
Параметр BVOP формата : Да
Параметр матрицы формата : По умолчанию
Параметр GOP формата : M=3, N=12
Продолжительность : 20 с.
Вид битрейта : Переменный
Битрейт : 5312 Кбит/сек
Максимальный битрейт : 9500 Кбит/сек
Ширина : 720 пикселей
Высота : 576 пикселей
Соотношение сторон : 4:3
Частота кадров : 25,000 кадров/сек
Стандарт вещания : PAL
Цветовое пространство : YUV
Субдискретизация насыщенности : 4:2:0
Битовая глубина : 8 бит
Тип развёртки : Чересстрочная
Порядок развёртки : Нижнее поле первое
Метод сжатия : С потерями
Бит/(Пиксели*Кадры) : 0.512
Размер потока : 13,3 Мбайт (90%)

Аудио #1
Идентификатор : 192 (0xC0)
Формат : MPEG Audio
Версия формата : Version 1
Профиль формата : Layer 2
Продолжительность : 20 с.
Вид битрейта : Постоянный
Битрейт : 224 Кбит/сек
Каналы : 2 канала
Частота : 48,0 КГц
Метод сжатия : С потерями
Размер потока : 549 Кбайт (4%)

Аудио #2
Идентификатор : 193 (0xC1)
Формат : MPEG Audio
Версия формата : Version 1
Профиль формата : Layer 2
Продолжительность : 20 с.
Вид битрейта : Постоянный
Битрейт : 224 Кбит/сек
Каналы : 2 канала
Частота : 48,0 КГц
Метод сжатия : С потерями
Размер потока : 549 Кбайт (4%)
Свернуть
Скриншоты
ИзображениеИзображениеИзображение
Свернуть


Последний раз редактировалось dvveselov 2011-11-24 13:59, всего редактировалось 8 раз(а).
Не в сети
Профиль  
 Добавлено: 2011-01-21 20:43 (спустя 1 час 47 минут)
Аватара пользователя
Стаж: 8 лет 3 месяца
Возраст: 43
Сообщений: 3290
Спасибок: 21012
Лайков: 3
dvveselov
Необходимы более подробные тех.данные к файлам.
Для видео - кодек, разрешение, битрейт.
Для каждой аудиодорожки - кодек, количество каналов, битрейт, вид перевода.
[Инструкция] Как получить информацию по видео файлу
Еще нужен отчет DVDInfo
DVDInfo

Cкрытый текст
Изображение
Свернуть
Назначение - быстрое получение информации о DVD-диске или отдельных его title-set'ах.
Использование:
- запустить программу и в открывшемся окне выбора директории выбрать VIDEO_TS диру на диске или на харде, где находится VIDEO_TS.IFO.
- дать в командной строке параметром путь к директории, где лежит VIDEO_TS.IFO на диске или на харде
- дать в командной строке полный путь к любому IFO-файлу
- воспользоваться расширением эксплорера и выбрать новый пункт в выпадающем по правой кнопке меню файла.
- ассоциировать в TotalCommander-е с расширением IFO на кнопку Alt+F3 (ну или любую другую в любом другом файл-менеджере)
- перенаправить информацию в текстовый файл, задав определенные параметры в командной строке (список параметров выдается если задать параметр /?) и поставить в конце ">file.txt". [Внимание! Программа ничего не выдает на вызывающую ее консоль, это не консольная аппликация. Данный режим только для перенаправления информации в файл.]
- использовать информационный модуль, сделанный в виде ActiveX-компоненты и который собственно и вытаскивает инфу из файлов, в своей собственной программе smileold.gif

Если программа получит путь к VIDEO_TS.IFO, то покажет инфу по всем найденным VTS, относящемся к выбранному ДВД. Если же к конкретному VTS.IFO - то только о нем.

Программа работает только с IFO-файлами, не делая анализа VOB-ов, поэтому информация типа делеев дорожеи или других подробностей, нее относящихся к IFO - не выдает. Короче то, что она показывает, можно получить и в IfoEdit-е winkold.gif.

Обновление версии программы до 1.1.0!
* Окно программы стало Drag-n-Drop-ным, то есть принимает дроп-нутый на него линк на файл.
* Окно программы опционально может быть "Always on top".
* Сохраняется последнее местоположение окна программы и в следующий раз оно открывается на том же месте (опционально).
* Максимальное количество возможных PGC увеличено с 25 до 100.
* Автоматически из списка VTS выбирается тот, который содержит максимально длинный видеофрагмент.
* Показываются VTS PUOs (Prohibited User Operations - если они имеются конечно).
* Для каждого VTS показываются длины входящих в него PGC (если их больше одного).
* Исправлено некорректное определение DTS дорожки.
* Более корректно показывается количество аудио и видеодорожек (в тех сборках, которые сделаны с несоблюдением соответствия количества в разных IFO файлах).
* Исправлено - не открывалось окно выбора при нажатии Ctrl+O.
* Изменено - при отказе от первоначального выбора диска/директории окно закрывалось, теперь остается открытым с отсутствующей информацией.

Скачать с офсайта
Свернуть
_________________
Изображение
Не в сети
Профиль  
 Добавлено: 2011-01-21 23:48 (спустя 3 часа)
Аватара пользователя
Стаж: 8 лет
Сообщений: 836
замечательный фильм!!!!
Смотрел его уже несколько раз.
Не в сети
Профиль  
 Добавлено: 2011-01-22 15:17 (спустя 15 часов)
Аватара пользователя
Стаж: 8 лет 3 месяца
Возраст: 43
Сообщений: 3290
Спасибок: 21012
Лайков: 3
dvveselov
Необходимы скриншоты оригинального разрешения видео.
[Инструкция] Как сделать скриншоты с видео
[Инструкция] Куда и как залить скриншоты
_________________
Изображение
Не в сети
Профиль  
 Добавлено: 2011-01-25 19:33 (спустя 3 дня)
Аватара пользователя
Стаж: 8 лет 6 месяцев
Возраст: 38
Сообщений: 1674
Спасибок: 16602
Лайков: 5

Иванишко:

Еще нужен отчет DVDInfo
DVDInfo

Cкрытый текст
Изображение
Свернуть
Назначение - быстрое получение информации о DVD-диске или отдельных его title-set'ах.
Использование:
- запустить программу и в открывшемся окне выбора директории выбрать VIDEO_TS диру на диске или на харде, где находится VIDEO_TS.IFO.
- дать в командной строке параметром путь к директории, где лежит VIDEO_TS.IFO на диске или на харде
- дать в командной строке полный путь к любому IFO-файлу
- воспользоваться расширением эксплорера и выбрать новый пункт в выпадающем по правой кнопке меню файла.
- ассоциировать в TotalCommander-е с расширением IFO на кнопку Alt+F3 (ну или любую другую в любом другом файл-менеджере)
- перенаправить информацию в текстовый файл, задав определенные параметры в командной строке (список параметров выдается если задать параметр /?) и поставить в конце ">file.txt". [Внимание! Программа ничего не выдает на вызывающую ее консоль, это не консольная аппликация. Данный режим только для перенаправления информации в файл.]
- использовать информационный модуль, сделанный в виде ActiveX-компоненты и который собственно и вытаскивает инфу из файлов, в своей собственной программе smileold.gif

Если программа получит путь к VIDEO_TS.IFO, то покажет инфу по всем найденным VTS, относящемся к выбранному ДВД. Если же к конкретному VTS.IFO - то только о нем.

Программа работает только с IFO-файлами, не делая анализа VOB-ов, поэтому информация типа делеев дорожеи или других подробностей, нее относящихся к IFO - не выдает. Короче то, что она показывает, можно получить и в IfoEdit-е winkold.gif.

Обновление версии программы до 1.1.0!
* Окно программы стало Drag-n-Drop-ным, то есть принимает дроп-нутый на него линк на файл.
* Окно программы опционально может быть "Always on top".
* Сохраняется последнее местоположение окна программы и в следующий раз оно открывается на том же месте (опционально).
* Максимальное количество возможных PGC увеличено с 25 до 100.
* Автоматически из списка VTS выбирается тот, который содержит максимально длинный видеофрагмент.
* Показываются VTS PUOs (Prohibited User Operations - если они имеются конечно).
* Для каждого VTS показываются длины входящих в него PGC (если их больше одного).
* Исправлено некорректное определение DTS дорожки.
* Более корректно показывается количество аудио и видеодорожек (в тех сборках, которые сделаны с несоблюдением соответствия количества в разных IFO файлах).
* Исправлено - не открывалось окно выбора при нажатии Ctrl+O.
* Изменено - при отказе от первоначального выбора диска/директории окно закрывалось, теперь остается открытым с отсутствующей информацией.

Скачать с офсайта
Свернуть
Почему не добавляете?
Не в сети
Профиль  
Начать новую темуОтветить на тему  [ Сообщений: 5 ] 
Вы не можете начинать темы
Вы не можете отвечать на сообщения
Вы не можете редактировать свои сообщения
Вы не можете удалять свои сообщения