Правила форума

Здесь находятся раздачи, на которых не было полного источника (сида) более месяца.
Вы можете вернуть релиз в соответствующий раздел, для этого напишите нам в специальной теме и встаньте на раздачу.
Новые релизы, повторяющие релизы в архиве, повторами не считаются.
Начать новую темуОтветить на тему  [ Сообщений: 2 ] 
Сообщения
 Добавлено: 2011-07-12 21:27
Модератор
Аватара пользователя
Стаж: 8 лет 1 месяц
Возраст: 20
Сообщений: 32130
Спасибок: 98563
Лайков: 80
Изображение

Серфер души / Soul Surfer


Год выпуска: 2011
Страна: США
Слоган: «When you come back from a loss, beat the odds, and never say never, you find a champion.»

Жанр: драма, спорт
Продолжительность: 01:46:28
Перевод: Любительский (одноголосый) [звук с CAMRip]

Режиссер: Шон МакНамара
В ролях: Анна-Cофия Робб, Деннис Куэйд, Хелен Хант, Кэрри Андервуд, Росс Томас, Лоррэйн Николсон, Кевин Сорбо, Коуди Гомес, Соня Балморес, Крис Брошу
Бюджет: $18 000 000
Сборы в США: $43 685 473
Сборы в мире: $44 097 201

Мировая премьера: 8 апреля 2011
Описание: Спортивный байопик о жизни серфингистки Бетани Хэмилтон. С детства Бетани увлекалась серфингом, но в 13 лет у северного побережья Кауай на нее напала акула; в результате атаки девушка осталась без левой руки, и чуть было не погибла. Но сила воли и настоящий характер сыграли свое дело - Бэттани, несмотря ни на что, вновь встала на доску и начала принимать участие в соревнованиях на правах полностью здорового серфера.
Изображение
MPAA: Изображение - Рекомендуется присутствие родителей
Качество: BDRip 720p [CHD]
Формат: Matroska

Видео: 5229 kb/s, 1280x534, 23.976 fps
Аудио: Russian: MP3, 128 kb/s (2 ch) / English: DTS-HD MA, 1510 kb/s (6 ch)
Субтитры: нет
Изображение
Релиз группы: Изображение
MediaInfo
Complete name : Y:Soul.Surfer.2011.BDRip.720p.at.mkv
Format : Matroska
File size : 5.11 GiB
Duration : 1h 46mn
Overall bit rate : 6 867 Kbps
Movie name : Soul Surfer (2011) Release for Uniongang.tv
Encoded date : UTC 2011-07-12 12:52:24
Writing application : mkvmerge v4.8.0 ('I Got The...') сборка от May 24 2011 03:12:58
Writing library : libebml v1.2.0 + libmatroska v1.1.0

Video
ID : 1
Format : AVC
Format/Info : Advanced Video Codec
Format profile : High@L4.1
Format settings, CABAC : Yes
Format settings, ReFrames : 12 frames
Format settings, GOP : M=4, N=32
Codec ID : V_MPEG4/ISO/AVC
Duration : 1h 46mn
Bit rate : 5 229 Kbps
Width : 1 280 pixels
Height : 534 pixels
Display aspect ratio : 2.35:1
Frame rate : 23.976 fps
Color space : YUV
Chroma subsampling : 4:2:0
Bit depth : 8 bits
Scan type : Progressive
Bits/(Pixel*Frame) : 0.319
Stream size : 3.79 GiB (74%)
Title : Soul Surfer (2011) Release for Uniongang.tv
Writing library : x264 core 115 r2008+578 3864dbe
Encoding settings : cabac=1 / ref=12 / deblock=1:-3:-3 / analyse=0x3:0x113 / me=umh / subme=10 / psy=1 / fade_compensate=0.00 / psy_rd=1.05:0.10 / mixed_ref=1 / me_range=32 / chroma_me=1 / trellis=2 / 8x8dct=1 / cqm=1 / deadzone=21,11 / fast_pskip=0 / chroma_qp_offset=-2 / threads=6 / sliced_threads=0 / nr=0 / decimate=1 / interlaced=0 / bluray_compat=0 / constrained_intra=0 / fgo=0 / bframes=6 / b_pyramid=2 / b_adapt=2 / b_bias=0 / direct=3 / weightb=1 / open_gop=0 / weightp=2 / keyint=250 / keyint_min=23 / scenecut=40 / intra_refresh=0 / rc_lookahead=40 / rc=2pass / mbtree=1 / bitrate=5229 / ratetol=1.0 / qcomp=0.70 / qpmin=3 / qpmax=69 / qpstep=4 / cplxblur=20.0 / qblur=0.5 / vbv_maxrate=40000 / vbv_bufsize=30000 / nal_hrd=none / ip_ratio=1.40 / aq=2:1.00
Language : English

Audio #1
ID : 2
Format : MPEG Audio
Format version : Version 1
Format profile : Layer 3
Mode : Joint stereo
Mode extension : MS Stereo
Codec ID : A_MPEG/L3
Codec ID/Hint : MP3
Duration : 1h 46mn
Bit rate mode : Constant
Bit rate : 128 Kbps
Channel(s) : 2 channels
Sampling rate : 48.0 KHz
Compression mode : Lossy
Delay relative to video : 7s 272ms
Stream size : 97.5 MiB (2%)
Title : Russian: MP3, 128 kb/s (2 ch)
Writing library : LAME3.98 (alpha)
Language : Russian

Audio #2
ID : 3
Format : DTS
Format/Info : Digital Theater Systems
Codec ID : A_DTS
Duration : 1h 46mn
Bit rate mode : Constant
Bit rate : 1 510 Kbps
Channel(s) : 6 channels
Channel positions : Front: L C R, Side: L R, LFE
Sampling rate : 48.0 KHz
Bit depth : 24 bits
Compression mode : Lossy
Delay relative to video : 22ms
Stream size : 1.12 GiB (22%)
Title : English: DTS-HD MA, 1510 kb/s (6 ch)
Language : English
Свернуть
Скриншоты
Изображение

Изображение

Изображение

Изображение
Свернуть
Не в сети
Профиль  
 Добавлено: 2013-07-21 14:53 (спустя 2 года)
Модератор
Аватара пользователя
Стаж: 8 лет 11 месяцев
Сообщений: 516
Спасибок: 26888
Лайков: 1
zarubejnoe-kino-hd-video-f1750/jizn-na-volne-soul-surfer-shon-maknamara-t513687.html
Не в сети
Профиль  
Начать новую темуОтветить на тему  [ Сообщений: 2 ] 
Вы не можете начинать темы
Вы не можете отвечать на сообщения
Вы не можете редактировать свои сообщения
Вы не можете удалять свои сообщения