Правила форума

Здесь находятся раздачи, на которых не было полного источника (сида) более месяца.
Вы можете вернуть релиз в соответствующий раздел, для этого напишите нам в специальной теме и встаньте на раздачу.
Новые релизы, повторяющие релизы в архиве, повторами не считаются.
Начать новую темуОтветить на тему  [ Сообщений: 2 ] 
Сообщения
 Добавлено: 2011-08-10 13:01
Аватара пользователя
Стаж: 6 лет 6 месяцев
Сообщений: 214
Спасибок: 10697
Шелуха / Husk

Изображение

Год выпуска: 2011
Страна: США
Слоган: «Пора собирать урожай»

Жанр: ужасы, триллер
Продолжительность: 01:19:23
Перевод: Профессиональный (многоголосый, закадровый)
Режиссер: Бретт Симмонс
В ролях: Девон Грайе, Уэс Чэтхэм, С.Дж. Томасон, Таммин Сурсок, Бен Истер, Кэндис Роуз, Ник Туссэн


Мировая премьера: 28 января 2011
Описание: Пятеро друзей путешествуют по стране. Их авто мчится по проселочной дороге среди бескрайних кукурузных полей. Внезапно стая ворон врезается в ветровое стекло и машина съезжает в кювет. Ребята отправляются за помощью к ближайшему дому. Однако на заброшенной ферме нет живых людей. Единственный здешний обитатель - отвратительный монстр, напоминающее воронье пугало. И он не желает выпускать живым из этих зарослей кукурузы никого из них
Изображение 5.1/10 (1,768 votes) Изображение 5.076 (597)
MPAA: Изображение - Лицам до 17 лет обязательно присутствие взрослого

Релиз группы: Изображение Раздача: Изображение
Изображение
Формат: DVD Video
Качество: DVD5 R5
Видео: PAL 16:9 (720x576)
Аудио: Russian (Dolby AC3, 6 ch)
Субтитры: Ukrainian
Размер: 3.61 GB
Дополнительно: Нет
NFO
Title:
Size: 3.61 Gb ( 3 782 222 KBytes ) - DVD-5
Enabled regions: 1, 2, 3, 4, 5, 6, 7, 8

VTS_01 :
Play Length: 00:00:08
Video: PAL 4:3 (720x576) VBR

VTS_02 :
Play Length: 00:00:13
Video: PAL 16:9 (720x576) VBR, Auto Pan&Scan

VTS_03 :
Play Length: 01:19:23
Video: PAL 16:9 (720x576) VBR, Auto Pan&Scan
Audio:
Russian (Dolby AC3, 6 ch)
Subtitles:
Ukrainian
Свернуть
MeduaInfo
General
Complete name : D:\Temp\FullDisc\0\VIDEO_TS\VTS_03_1.VOB
Format : MPEG-PS
File size : 1 024 MiB
Duration : 22mn 2s
Overall bit rate : 6 497 Kbps

Video
ID : 224 (0xE0)
Format : MPEG Video
Format version : Version 2
Format profile : Main@Main
Format settings, BVOP : Yes
Format settings, Matrix : Default
Format settings, GOP : M=3, N=15
Duration : 22mn 2s
Bit rate mode : Variable
Bit rate : 5 984 Kbps
Nominal bit rate : 8 000 Kbps
Width : 720 pixels
Height : 576 pixels
Display aspect ratio : 16:9
Frame rate : 25.000 fps
Standard : PAL
Color space : YUV
Chroma subsampling : 4:2:0
Bit depth : 8 bits
Scan type : Progressive
Compression mode : Lossy
Bits/(Pixel*Frame) : 0.577
Stream size : 943 MiB (92%)

Audio
ID : 189 (0xBD)-128 (0x80)
Format : AC-3
Format/Info : Audio Coding 3
Mode extension : CM (complete main)
Muxing mode : DVD-Video
Duration : 22mn 1s
Bit rate mode : Constant
Bit rate : 384 Kbps
Channel(s) : 6 channels
Channel positions : Front: L C R, Side: L R, LFE
Sampling rate : 48.0 KHz
Bit depth : 16 bits
Compression mode : Lossy
Delay relative to video : -80ms
Stream size : 60.5 MiB (6%)
Свернуть

"Скриншоты"

Изображение
Изображение
Изображение
Изображение
Изображение
Свернуть


Последний раз редактировалось AMo4ka 2011-08-10 22:43, всего редактировалось 1 раз.
Не в сети
Профиль  
 Добавлено: 2011-08-10 13:39 (спустя 38 минут)
Top-seeder
Аватара пользователя
Стаж: 8 лет 8 месяцев
Возраст: 26
Сообщений: 665
Спасибок: 2687
Лайков: 2
помогу с раздачей

Добавлено спустя 12 минут:
Продолжительность: 00:22:01......это как? время 79 мин.
Не в сети
Профиль  
Начать новую темуОтветить на тему  [ Сообщений: 2 ] 
Вы не можете начинать темы
Вы не можете отвечать на сообщения
Вы не можете редактировать свои сообщения
Вы не можете удалять свои сообщения