Правила форума

Здесь находятся раздачи, на которых не было полного источника (сида) более месяца.
Вы можете вернуть релиз в соответствующий раздел, для этого напишите нам в специальной теме и встаньте на раздачу.
Новые релизы, повторяющие релизы в архиве, повторами не считаются.
Начать новую темуОтветить на тему  [ Сообщений: 3 ] 
Сообщения
 Добавлено: 2011-08-10 23:03
Top-seeder
Аватара пользователя
Стаж: 8 лет 8 месяцев
Возраст: 26
Сообщений: 665
Спасибок: 2687
Лайков: 2
Ширли-Мырли

Изображение


Год выпуска: 1995
Страна: ИзображениеРоссия
Жанр: Комедия
Продолжительность: 136 мин
Перевод: Не требуется

Режиссёр: Владимир Меньшов
Сценарист: Владимир Меньшов, Виталий Москаленко, Андрей Самсонов
Продюсер: Владимир Досталь, Александр Литвинов
Оператор: Вадим Алисов
Композитор: Тимур Коган
В ролях: Валерий Гаркалин, Вера Алентова, Игорь Угольников, Леонид Куравлев, Нонна Мордюкова, Олег Табаков, Армен Джигарханян, Олег Ефремов, Любовь Полищук, Инна Чурикова
Описание: Невероятная история о братьях — близнецах, никогда прежде не слыхавших друг о друге. Один из них, в младенчестве подброшенный в табор, стал цыганским бароном; другой рос в детском доме — и теперь он еврей — музыкант с мировым именем; третьего воспитывала родная тетя, и домашнее воспитание принесло свои плоды: он стал авторитетнейшим в СНГ вором и аферистом.

Именно он, благодаря своим талантам, обводит вокруг пальца главу мафии и похищает фантастический алмаз «Спаситель России». Стоимость найденного в Сибири драгоценного камня такова, что вся страна сможет 3 года отдыхать на Канарских островах. Его размерами потрясено мировое сообщество. Английская королева рыдает, закрывшись в спальне.

Южно — африканские шахтеры поклялись не выходить на поверхность, пока не отыщут более крупный самородок… А в России сенсация следует за сенсацией! Находка века породила ограбление века! Мир, затаив дыхание, следит за стремительной сменой событий…
Доп.информация: Полная реставрация изображения и звука, "Крупный план"
Бюджет: 3 400 000 000 руб.
Изображение 7.238

Качество: DVD9
Формат: DVD Video
Видео кодек: MPEG2
Аудио кодек: AC3 (Dolby Digital)
Видео: PAL 4:3 (720x576) VBR
Аудио #1: Russian (Dolby AC3, 6 ch), Russian (Dolby AC3, 1 ch) [Не требуется]
NFO
Свернуть
MeduaInfo
General
Complete name : D:\Shirli_mirli_DVD\VIDEO_TS\VTS_02_7.VOB
Format : MPEG-PS
File size : 437 MiB
Duration : 8mn 58s
Overall bit rate : 6 802 Kbps

Video
ID : 224 (0xE0)
Format : MPEG Video
Format version : Version 2
Format profile : Main@Main
Format settings, BVOP : Yes
Format settings, Matrix : Default
Format settings, GOP : M=3, N=12
Duration : 8mn 58s
Bit rate mode : Constant
Bit rate : 6 000 Kbps
Width : 720 pixels
Height : 576 pixels
Display aspect ratio : 4:3
Frame rate : 25.000 fps
Standard : PAL
Color space : YUV
Chroma subsampling : 4:2:0
Bit depth : 8 bits
Scan type : Interlaced
Scan order : Top Field First
Compression mode : Lossy
Bits/(Pixel*Frame) : 0.579
Stream size : 385 MiB (88%)

Audio #1
ID : 189 (0xBD)-128 (0x80)
Format : AC-3
Format/Info : Audio Coding 3
Mode extension : CM (complete main)
Muxing mode : DVD-Video
Duration : 8mn 58s
Bit rate mode : Constant
Bit rate : 448 Kbps
Channel(s) : 6 channels
Channel positions : Front: L C R, Side: L R, LFE
Sampling rate : 48.0 KHz
Bit depth : 16 bits
Compression mode : Lossy
Delay relative to video : -656ms
Stream size : 28.8 MiB (7%)

Audio #2
ID : 189 (0xBD)-129 (0x81)
Format : AC-3
Format/Info : Audio Coding 3
Mode extension : CM (complete main)
Muxing mode : DVD-Video
Duration : 8mn 58s
Bit rate mode : Constant
Bit rate : 224 Kbps
Channel(s) : 1 channel
Channel positions : Front: C
Sampling rate : 48.0 KHz
Bit depth : 16 bits
Compression mode : Lossy
Delay relative to video : -592ms
Stream size : 14.4 MiB (3%)

Свернуть
Скриншоты
Изображение
Изображение
Изображение
Изображение
Свернуть

Знаете ли Вы, что...
Бюджет в 3 400 000 000 рублей - это сумма до деноминации 1998 года, в пересчете на настоящее время бюджет фильма составляет 3 400 000 рублей.
Свернуть


Последний раз редактировалось AndrBeb 2011-08-11 13:16, всего редактировалось 2 раз(а).
Не в сети
Профиль  
 Добавлено: 2011-08-10 23:49 (спустя 45 минут)
Аватара пользователя
Стаж: 8 лет 3 месяца
Возраст: 43
Сообщений: 3290
Спасибок: 21012
Лайков: 3
это то кино, которое не надоедает, ставлю золото :)
_________________
Изображение
Не в сети
Профиль  
 Добавлено: 2011-08-10 23:50 (спустя 1 минута)
Top-seeder
Аватара пользователя
Стаж: 8 лет 8 месяцев
Возраст: 26
Сообщений: 665
Спасибок: 2687
Лайков: 2

Иванишко:

это то кино, которое не надоедает, ставлю золото :)
эт точно) спасибо!
Не в сети
Профиль  
Начать новую темуОтветить на тему  [ Сообщений: 3 ] 
Вы не можете начинать темы
Вы не можете отвечать на сообщения
Вы не можете редактировать свои сообщения
Вы не можете удалять свои сообщения