Правила форума

Здесь находятся раздачи, на которых не было полного источника (сида) более месяца.
Вы можете вернуть релиз в соответствующий раздел, для этого напишите нам в специальной теме и встаньте на раздачу.
Новые релизы, повторяющие релизы в архиве, повторами не считаются.
Начать новую темуОтветить на тему  [ Сообщений: 9 ] 
Сообщения
 Добавлено: 2013-01-03 20:26
Модератор
Аватара пользователя
Стаж: 6 лет 10 месяцев
Возраст: 33
Сообщений: 5908
Спасибок: 61255
Лайков: 3540
Изображение

Шкатулка проклятия
The Possession


Год выпуска: 2012
Страна: США, Канада
Слоган: «Бойся демона, что не боится Бога»
Жанр: ужасы, триллер
Продолжительность: 01:27:00
Перевод: Профессиональный (полное дублирование) | Звук с CAMRip
Режиссер: Уле Борнедаль
Сценарий: Джульетт Сноуден, Стайлз Уайт, Лесли Горнштейн
Продюсер: Роберт Дж. Тейперт, Д. Янг, Сэм Рэйми, Николь Браун, Питер Шлессел
Оператор: Дан Лаустсен
Композитор: Антон Санко
В ролях: Джеффри Дин Морган, Михаил Георгиу, Наташа Калис, Кира Седжвик, Мэдисон Девенпорт, Роб ЛаБелль, Матисьяху, Джей Бразо, Никита Прозоровский, Грант Шоу, Нана Гбивонио, Анна Хэган
Бюджет: $14 000 000
Сборы в США: $49 130 154
Сборы в России: $3 071 055
Сборы в мире: $76 691 449
Мировая премьера: 30 августа 2012
Релиз на DVD: 15 января 2013, «West Video»
Релиз на Blu-ray: 15 января 2013, «West Video»
Описание: Девочка покупает винтажную шкатулку на ярмарке в одном из соседних дворов. Поначалу родители не видят повода для беспокойства, когда их младшая дочь становится одержима новой игрушкой. Со временем поведение девочки становится все более странным, а реакции неожиданными, родители пытаются раскрыть секрет шкатулки. Они не подозревают, что в деревянной коробке живет злой дух, который творит страшные вещи со своими хозяевами - их было много и владели они этим «сокровищем» очень недолго. Отец девочки объединяется с бывшей женой в попытках найти способ снять проклятие с их ребенка.

Изображение User Rating: 5.820 (2406)
Изображение User Rating: 5.90 (8 799)
MPAA: PG-13 - Детям до 13 лет просмотр не желателен
Раздача группы: Изображение
Изображение
Качество: BDRip 720p
Формат: AVI
Видео: 6000 kb/s, 1280x532
Аудио: Russian: MP3, 192 kb/s (2 ch) / English: DTS, 1510 kb/s (6 ch)
Примечание: Не хватает около 6 минут перевода!
"MediaInfo"
  • General
    Unique ID : 246683048879119596255688748375099409999 (0xB9956D53DD069D56AC6C672DF589864F)
    Complete name : Shkatulka.prokljatija.2012.Dc.BDRip.720p.mkv
    Format : Matroska
    Format version : Version 2
    File size : 4.91 GiB
    Duration : 1h 32mn
    Overall bit rate : 7 627 Kbps
    Encoded date : UTC 2013-01-03 13:09:07
    Writing application : mkvmerge v5.2.0 ('I can't explain') built on Dec 18 2011 18:12:03
    Writing library : libebml v1.2.3 + libmatroska v1.3.0

    Video
    ID : 1
    Format : AVC
    Format/Info : Advanced Video Codec
    Format profile : High@L4.1
    Format settings, CABAC : Yes
    Format settings, ReFrames : 5 frames
    Codec ID : V_MPEG4/ISO/AVC
    Duration : 1h 32mn
    Bit rate : 6 000 Kbps
    Width : 1 280 pixels
    Height : 532 pixels
    Display aspect ratio : 2.40:1
    Frame rate : 23.976 fps
    Color space : YUV
    Chroma subsampling : 4:2:0
    Bit depth : 8 bits
    Scan type : Progressive
    Bits/(Pixel*Frame) : 0.367
    Stream size : 3.72 GiB (76%)
    Writing library : x264 core 129 r2230 1cffe9f
    Encoding settings : cabac=1 / ref=5 / deblock=1:-3:-3 / analyse=0x3:0x113 / me=umh / subme=8 / psy=1 / psy_rd=1.00:0.00 / mixed_ref=1 / me_range=16 / chroma_me=1 / trellis=1 / 8x8dct=1 / cqm=0 / deadzone=21,11 / fast_pskip=1 / chroma_qp_offset=-2 / threads=16 / lookahead_threads=2 / sliced_threads=0 / nr=0 / decimate=1 / interlaced=0 / bluray_compat=0 / constrained_intra=0 / bframes=3 / b_pyramid=2 / b_adapt=1 / b_bias=0 / direct=1 / weightb=1 / open_gop=0 / weightp=2 / keyint=240 / keyint_min=23 / scenecut=40 / intra_refresh=0 / rc_lookahead=60 / rc=abr / mbtree=1 / bitrate=6000 / ratetol=1.0 / qcomp=0.60 / qpmin=0 / qpmax=69 / qpstep=4 / ip_ratio=1.40 / aq=1:1.00
    Language : English
    Default : Yes
    Forced : Yes

    Audio #1
    ID : 2
    Format : MPEG Audio
    Format version : Version 1
    Format profile : Layer 3
    Mode : Joint stereo
    Codec ID : A_MPEG/L3
    Codec ID/Hint : MP3
    Duration : 1h 32mn
    Bit rate mode : Constant
    Bit rate : 192 Kbps
    Channel(s) : 2 channels
    Sampling rate : 48.0 KHz
    Compression mode : Lossy
    Stream size : 127 MiB (3%)
    Language : Russian
    Default : Yes
    Forced : Yes

    Audio #2
    ID : 3
    Format : DTS
    Format/Info : Digital Theater Systems
    Codec ID : A_DTS
    Duration : 1h 32mn
    Bit rate mode : Constant
    Bit rate : 1 510 Kbps
    Channel(s) : 6 channels
    Channel positions : Front: L C R, Side: L R, LFE
    Sampling rate : 48.0 KHz
    Bit depth : 24 bits
    Compression mode : Lossy
    Stream size : 996 MiB (20%)
    Language : English
    Default : No
    Forced : No

    Text
    ID : 4
    Format : UTF-8
    Codec ID : S_TEXT/UTF8
    Codec ID/Info : UTF-8 Plain Text
    Language : English
    Default : No
    Forced : No

    Menu
    00:00:00.000 : en:00:00:00.000
    00:03:36.508 : en:00:03:36.508
    00:08:00.313 : en:00:08:00.313
    00:11:01.744 : en:00:11:01.744
    00:13:24.721 : en:00:13:24.721
    00:16:57.016 : en:00:16:57.016
    00:20:51.250 : en:00:20:51.250
    00:25:05.129 : en:00:25:05.129
    00:30:09.975 : en:00:30:09.975
    00:35:03.560 : en:00:35:03.560
    00:39:06.177 : en:00:39:06.177
    00:43:04.540 : en:00:43:04.540
    00:46:16.816 : en:00:46:16.816
    00:50:02.458 : en:00:50:02.458
    00:52:48.707 : en:00:52:48.707
    00:55:26.573 : en:00:55:26.573
    00:57:09.926 : en:00:57:09.926
    01:01:59.341 : en:01:01:59.341
    01:05:47.569 : en:01:05:47.569
    01:08:22.098 : en:01:08:22.098
    01:12:05.404 : en:01:12:05.404
    01:17:08.749 : en:01:17:08.749
    01:24:01.912 : en:01:24:01.912
    01:26:42.239 : en:01:26:42.239
Свернуть
"Знаете ли Вы, что..."
  • Первоначально Американская Киноассоциация присудила рейтинг R за «насилие, ужас и чрезмерно волнующие образы». Фильм был отредактирован и в итоге получил рейтинг PG-13 за «материал взрослой тематики с применением насилия и волнующих сцен».
Свернуть
Скриншоты

Изображение
Изображение
Изображение
Свернуть
_________________
ИзображениеИзображение Изображение
Изображение
 tany1984 и di-ys1 нравится это.
Не в сети
Профиль  
 Добавлено: 2013-01-03 21:16 (спустя 50 минут)
Стаж: 7 лет
Сообщений: 7
:'( рябята как звук??
Не в сети
Профиль  
 Добавлено: 2013-01-03 21:20 (спустя 3 минуты)
Модератор релиз-группы
Аватара пользователя
Стаж: 6 лет 5 месяцев
Возраст: 25
Сообщений: 622
Спасибок: 10257
Лайков: 7
Dикси
Sample тебе в помощь :)
_________________
Изображение
Не в сети
Профиль  
 Добавлено: 2013-01-04 16:11 (спустя 18 часов)
Стаж: 7 лет 9 месяцев
Сообщений: 18
да интересует звук???ответьте пожалуста!
Не в сети
Профиль  
 Добавлено: 2013-01-05 13:42 (спустя 21 час)
Аватара пользователя
Стаж: 7 лет 4 месяца
Возраст: 31
Сообщений: 321
Спасибок: 57
перевод говно!!!! то он есть то его нет.
Не в сети
Профиль  
 Добавлено: 2013-01-05 13:55 (спустя 13 минут)
Модератор
Аватара пользователя
Стаж: 6 лет 10 месяцев
Возраст: 33
Сообщений: 5908
Спасибок: 61255
Лайков: 3540

dunairus:

перевод говно!!!! то он есть то его нет.
Перевод: Профессиональный (полное дублирование) | Звук с CAMRip
_________________
ИзображениеИзображение Изображение
Изображение
Не в сети
Профиль  
 Добавлено: 2013-01-09 18:39 (спустя 4 дня)
Аватара пользователя
Стаж: 5 лет 9 месяцев
Сообщений: 6
Так как перевод??
Не в сети
Профиль  
 Добавлено: 2013-01-17 11:43 (спустя 7 дней)
Модератор
Аватара пользователя
Стаж: 6 лет 10 месяцев
Возраст: 33
Сообщений: 5908
Спасибок: 61255
Лайков: 3540
Поглотить
_________________
ИзображениеИзображение Изображение
Изображение
Не в сети
Профиль  
 Добавлено: 2013-01-18 23:35 (спустя 1 день 11 часов)
Руководитель релиз-группы
Аватара пользователя
Стаж: 7 лет 4 месяца
Возраст: 31
Сообщений: 3407
Спасибок: 46729
Лайков: 5
viewtopic.php?f=1750&t=496152
Не в сети
Профиль  
Начать новую темуОтветить на тему  [ Сообщений: 9 ] 
Вы не можете начинать темы
Вы не можете отвечать на сообщения
Вы не можете редактировать свои сообщения
Вы не можете удалять свои сообщения