Правила форума

Здесь находятся раздачи, на которых не было полного источника (сида) более месяца.
Вы можете вернуть релиз в соответствующий раздел, для этого напишите нам в специальной теме и встаньте на раздачу.
Новые релизы, повторяющие релизы в архиве, повторами не считаются.
Начать новую темуОтветить на тему  [ 1 сообщение ] 
Сообщения
 Добавлено: 2012-01-19 15:49
Книголюб
Аватара пользователя
Стаж: 7 лет 2 месяца
Сообщений: 2823
Спасибок: 48830
Лайков: 73
Шпион, выйди вон!
Tinker Tailor Soldier Spy

Изображение


Год выпуска: 2011
Страна: Германия, Франция, Великобритания
Слоган: «Секретная информация будет раскрыта»
Жанр: триллер, детектив
Продолжительность: 02:07:22
Перевод: Профессиональный[лицензия]

Режиссёр: Томас Альфредсон
В ролях: Гари Олдман, Колин Фёрт, Том Харди, Джон Хёрт, Тоби Джонс, Марк Стронг, Бенедикт Камбербэтч, Кьяран Хайндс, Константин Хабенский, Светлана Ходченкова
Описание: Многие сотрудники британской разведки догадывались, что в ее руководстве давно засел «крот», работающий на Россию. Но те, кто отваживался об этом заявлять открыто, почему-то оказывались в отставке. Остальные предпочитали помалкивать. Но подтверждение существования русского агента пришло с совсем неожиданной стороны. Начинается тайное расследование, возглавляемое находящимся в отставке Джорджем Смайли. И никто, включая высшее руководство разведки, не должен догадаться, что на крота снова объявлена охота.
Рейтинг MPAA: Рейтинг R (Подростки до 17 лет допускаются на фильм только в сопровождении одного из родителей)
Мировая премьера: 5 сентября 2011
Премьера в России: 8 декабря 2011, «Top Film Distribution»
Бюджет: £20 000 000
Изображение 6.814 5 829

Качество: BDRip
Формат: DVD Video
Видео кодек:(H.264)
Аудио кодек: AC3 (Dolby Digital)
Видео: 6604 kb/s, 1280x544 23.98fps 0.396Bits/Pixel
Аудио #1: Russian: AC3, 384 kb/s (6 ch)
Аудио #2: English: DTS, 755 kb/s (6 ch)
MediaInfo
General
Unique ID : 254965426929251187699441030104291342147 (0xBFD08E17CCAE372280DFD701FD75F743)
Complete name : D:\Shpion.vijdi.von.2011.mkv
Format : Matroska
Format version : Version 2
File size : 6.90 GiB
Duration : 2h 7mn
Overall bit rate : 7 756 Kbps
Encoded date : UTC 2012-01-13 14:00:27
Writing application : mkvmerge v3.4.0 ('Rapunzel') built on May 15 2010 09:38:20
Writing library : libebml v0.8.0 + libmatroska v0.9.0

Video
ID : 1
Format : AVC
Format/Info : Advanced Video Codec
Format profile : High@L4.1
Format settings, CABAC : Yes
Format settings, ReFrames : 5 frames
Codec ID : V_MPEG4/ISO/AVC
Duration : 2h 7mn
Bit rate : 6 604 Kbps
Width : 1 280 pixels
Height : 544 pixels
Display aspect ratio : 2.35:1
Frame rate : 23.976 fps
Color space : YUV
Chroma subsampling : 4:2:0
Bit depth : 8 bits
Scan type : Progressive
Bits/(Pixel*Frame) : 0.396
Stream size : 5.75 GiB (83%)
Writing library : x264 core 120 r2120 0c7dab9
Encoding settings : cabac=1 / ref=5 / deblock=1:0:0 / analyse=0x3:0x133 / me=umh / subme=7 / psy=1 / psy_rd=1.00:0.00 / mixed_ref=1 / me_range=16 / chroma_me=1 / trellis=1 / 8x8dct=1 / cqm=0 / deadzone=21,11 / fast_pskip=1 / chroma_qp_offset=-2 / threads=12 / sliced_threads=0 / nr=0 / decimate=1 / interlaced=0 / bluray_compat=0 / constrained_intra=0 / bframes=3 / b_pyramid=2 / b_adapt=2 / b_bias=0 / direct=3 / weightb=1 / open_gop=0 / weightp=2 / keyint=250 / keyint_min=23 / scenecut=40 / intra_refresh=0 / rc=2pass / mbtree=0 / bitrate=6604 / ratetol=1.0 / qcomp=0.60 / qpmin=0 / qpmax=69 / qpstep=4 / cplxblur=20.0 / qblur=0.5 / ip_ratio=1.40 / pb_ratio=1.30 / aq=1:1.00
Language : English
Default : No
Forced : No

Audio #1
ID : 2
Format : AC-3
Format/Info : Audio Coding 3
Mode extension : CM (complete main)
Codec ID : A_AC3
Duration : 2h 7mn
Bit rate mode : Constant
Bit rate : 384 Kbps
Channel(s) : 6 channels
Channel positions : Front: L C R, Side: L R, LFE
Sampling rate : 48.0 KHz
Bit depth : 16 bits
Compression mode : Lossy
Stream size : 350 MiB (5%)
Title : Russian @ DD 5.1 @ 384 kbps
Language : Russian
Default : Yes
Forced : No

Audio #2
ID : 3
Format : DTS
Format/Info : Digital Theater Systems
Codec ID : A_DTS
Duration : 2h 7mn
Bit rate mode : Constant
Bit rate : 755 Kbps
Channel(s) : 6 channels
Channel positions : Front: L C R, Side: L R, LFE
Sampling rate : 48.0 KHz
Bit depth : 24 bits
Compression mode : Lossy
Delay relative to video : 11ms
Stream size : 687 MiB (10%)
Title : English @ DTS 5.1 @ 755 kbps
Language : English
Default : No
Forced : No

Menu
00:00:00.000 : en:00:00:00.000
00:12:39.801 : en:00:12:39.801
00:22:44.655 : en:00:22:44.655
00:35:04.853 : en:00:35:04.853
00:48:35.913 : en:00:48:35.913
00:59:11.256 : en:00:59:11.256
01:10:34.522 : en:01:10:34.522
01:24:45.706 : en:01:24:45.706
01:34:48.808 : en:01:34:48.808
01:41:51.147 : en:01:41:51.147
01:51:18.422 : en:01:51:18.422
02:00:19.337 : en:02:00:19.337


Свернуть

Скриншоты
Изображение
Изображение
Изображение
Изображение
Свернуть
Не в сети
Профиль  
Начать новую темуОтветить на тему  [ 1 сообщение ] 
Вы не можете начинать темы
Вы не можете отвечать на сообщения
Вы не можете редактировать свои сообщения
Вы не можете удалять свои сообщения