Правила форума

Здесь находятся раздачи, на которых не было полного источника (сида) более месяца.
Вы можете вернуть релиз в соответствующий раздел, для этого напишите нам в специальной теме и встаньте на раздачу.
Новые релизы, повторяющие релизы в архиве, повторами не считаются.
Начать новую темуОтветить на тему  [ Сообщений: 2 ] 
Сообщения
 Добавлено: 2012-05-07 18:10
Модератор релиз-группы
Аватара пользователя
Стаж: 9 лет 1 месяц
Возраст: 97
Сообщений: 11659
Спасибок: 6530
Лайков: 269
Шпионы как мы / Spies Like Us

Изображение


Год выпуска: 1985
Страна: сша
Жанр: комедия
Продолжительность: 01:42:07
Перевод: Профессиональный (многоголосый закадровый)
Многоголосый (Канал "ТНТ")
Авторский В.Горчаков
Авторский Ю.Живов

Режиссёр: Джон Лэндис
В ролях: Чеви Чейз, Дэн Эйкройд, Стив Форрест, Донна Диксон, Брюс Дэвисон, Берни Кейси, Уильям Принц, Том Хэттен, Фрэнк Оз, Чарльз МакКоуэн
Описание: Двоих молодых людей — служащих Госдепартамента США — отбирают «для выполнения ответственного задания». После непродолжительного курса подготовки их забрасывают… в Пакистан. Чудом уцелев после столкновения с местными племенами, они получают новое задание — перейти границу и выйти к дороге, ведущей в Душанбе.
Здесь их уже поджидают таджикские пограничники и «товарищи из КГБ». Но и от них друзьям удается избавиться. И тут они встречают свою новую знакомую — такую же шпионку, как и они, скрывающуюся под личиной врача Красного креста. Ее цель — советская ракета СС-50, которую она должна запустить. В результате некоторых приключений троице удается совершить пуск ракеты, и она уходит в направлении… Соединенных Штатов…
Изображение

Качество: BDRip 1080p
Формат: mkv
Видео кодек: MPEG-4
Аудио кодек: AC3 (Dolby Digital)
Видео: AVC at 10,2 Мбит/сек 1920 x 1080 (1.778) at 23.976 fps
Аудио 1: Russian: 48 kHz, AC3, 192 kbps [Многоголосый, Варус-видео]
Аудио 2: Russian: 48 kHz, AC3, 192 kbps [Многоголосый, Канал "ТНТ" (озвучка НТВ+)]
Аудио 3: Russian: 48 kHz, AC3, 640 kbps [Одноголосый, В.Горчаков]
Аудио 4: Russian: 48 kHz, AC3, 640 kbps [Одноголосый, Ю.Живов]
Аудио 5: English: 48 kHz, AC3, 640 kbps
Скриншоты
Изображение
Изображение
Изображение
Изображение
Свернуть
Mi
Format : Matroska
Format version : Version 2
File size : 8.91 GiB
Duration : 1h 42mn
Overall bit rate : 12.5 Mbps
Movie name : Spies Like Us_Rip1080_HDReactor.org
Encoded date : UTC 2010-06-28 14:57:04
Writing application : mkvmerge v3.4.0 ('Rapunzel') сборка от May 15 2010 09:38:20
Writing library : libebml v0.8.0 + libmatroska v0.9.0

Video
ID : 1
Format : AVC
Format/Info : Advanced Video Codec
Format profile : High@L4.1
Format settings, CABAC : Yes
Format settings, ReFrames : 4 frames
Codec ID : V_MPEG4/ISO/AVC
Duration : 1h 42mn
Bit rate : 10.2 Mbps
Width : 1 920 pixels
Height : 1 080 pixels
Display aspect ratio : 16:9
Frame rate : 23.976 fps
Color space : YUV
Chroma subsampling : 4:2:0
Bit depth : 8 bits
Scan type : Progressive
Bits/(Pixel*Frame) : 0.205
Stream size : 7.08 GiB (80%)
Writing library : x264 core 98 r1649 20cbe10
Encoding settings : cabac=1 / ref=4 / deblock=1:-3:-3 / analyse=0x3:0x113 / me=umh / subme=7 / psy=1 / psy_rd=0.90:0.05 / mixed_ref=1 / me_range=32 / chroma_me=1 / trellis=2 / 8x8dct=1 / cqm=0 / deadzone=21,11 / fast_pskip=0 / chroma_qp_offset=-3 / threads=6 / sliced_threads=0 / nr=0 / decimate=0 / interlaced=0 / constrained_intra=0 / bframes=7 / b_pyramid=2 / b_adapt=2 / b_bias=0 / direct=1 / weightb=1 / weightp=2 / keyint=250 / keyint_min=25 / scenecut=40 / intra_refresh=0 / rc=2pass / mbtree=0 / bitrate=10195 / ratetol=1.0 / qcomp=0.60 / qpmin=10 / qpmax=51 / qpstep=4 / cplxblur=20.0 / qblur=0.5 / ip_ratio=1.40 / pb_ratio=1.30 / aq=1:1.00
Language : English
Default : No
Forced : No

Audio #1
ID : 2
Format : AC-3
Format/Info : Audio Coding 3
Mode extension : CM (complete main)
Codec ID : A_AC3
Duration : 1h 42mn
Bit rate mode : Constant
Bit rate : 192 Kbps
Channel(s) : 2 channels
Channel positions : Front: L R
Sampling rate : 48.0 KHz
Bit depth : 16 bits
Compression mode : Lossy
Stream size : 140 MiB (2%)
Title : Многоголосый закадровый, Варус-видео
Language : Russian
Default : Yes
Forced : No

Audio #2
ID : 3
Format : AC-3
Format/Info : Audio Coding 3
Mode extension : CM (complete main)
Codec ID : A_AC3
Duration : 1h 42mn
Bit rate mode : Constant
Bit rate : 192 Kbps
Channel(s) : 2 channels
Channel positions : Front: L R
Sampling rate : 48.0 KHz
Bit depth : 16 bits
Compression mode : Lossy
Stream size : 140 MiB (2%)
Title : Многоголосый закадровый, Канал ТНТ
Language : Russian
Default : No
Forced : No

Audio #3
ID : 4
Format : AC-3
Format/Info : Audio Coding 3
Mode extension : CM (complete main)
Codec ID : A_AC3
Duration : 1h 42mn
Bit rate mode : Constant
Bit rate : 640 Kbps
Channel(s) : 2 channels
Channel positions : Front: L R
Sampling rate : 48.0 KHz
Bit depth : 16 bits
Compression mode : Lossy
Stream size : 468 MiB (5%)
Title : Одноголосый закадровый, В.Горчаков
Language : Russian
Default : No
Forced : No

Audio #4
ID : 5
Format : AC-3
Format/Info : Audio Coding 3
Mode extension : CM (complete main)
Codec ID : A_AC3
Duration : 1h 42mn
Bit rate mode : Constant
Bit rate : 640 Kbps
Channel(s) : 2 channels
Channel positions : Front: L R
Sampling rate : 48.0 KHz
Bit depth : 16 bits
Compression mode : Lossy
Stream size : 468 MiB (5%)
Title : Одноголосый закадровый, Ю.Живов
Language : Russian
Default : No
Forced : No

Audio #5
ID : 6
Format : AC-3
Format/Info : Audio Coding 3
Mode extension : CM (complete main)
Codec ID : A_AC3
Duration : 1h 42mn
Bit rate mode : Constant
Bit rate : 640 Kbps
Channel(s) : 2 channels
Channel positions : Front: L R
Sampling rate : 48.0 KHz
Bit depth : 16 bits
Compression mode : Lossy
Stream size : 468 MiB (5%)
Language : English
Default : No
Forced : No

Menu
00:00:00.000 : en:00:00:00.000
00:05:00.008 : en:00:05:00.008
00:07:57.894 : en:00:07:57.894
00:10:25.416 : en:00:10:25.416
00:14:27.074 : en:00:14:27.074
00:19:03.976 : en:00:19:03.976
00:21:33.000 : en:00:21:33.000
00:25:26.066 : en:00:25:26.066
00:28:43.805 : en:00:28:43.805
00:31:50.742 : en:00:31:50.742
00:35:06.854 : en:00:35:06.854
00:39:36.457 : en:00:39:36.457
00:43:14.300 : en:00:43:14.300
00:43:48.834 : en:00:43:48.834
00:47:17.209 : en:00:47:17.209
00:49:56.535 : en:00:49:56.535
00:52:55.297 : en:00:52:55.297
00:54:56.042 : en:00:54:56.042
00:57:05.755 : en:00:57:05.755
00:59:10.129 : en:00:59:10.129
01:01:35.525 : en:01:01:35.525
01:05:37.350 : en:01:05:37.350
01:10:41.445 : en:01:10:41.445
01:14:33.385 : en:01:14:33.385
01:19:39.232 : en:01:19:39.232
01:23:02.227 : en:01:23:02.227
01:27:26.199 : en:01:27:26.199
01:31:03.833 : en:01:31:03.833
01:34:54.271 : en:01:34:54.271
01:36:37.625 : en:01:36:37.625

Свернуть
Не в сети
Профиль  
 Добавлено: 2012-05-08 04:02 (спустя 9 часов)
Аватара пользователя
Стаж: 7 лет 2 месяца
Сообщений: 7167
Спасибок: 81972
Лайков: 2438
:co_ol:
Не в сети
Профиль  
Начать новую темуОтветить на тему  [ Сообщений: 2 ] 
Вы не можете начинать темы
Вы не можете отвечать на сообщения
Вы не можете редактировать свои сообщения
Вы не можете удалять свои сообщения