Правила форума

Здесь находятся раздачи, на которых не было полного источника (сида) более месяца.
Вы можете вернуть релиз в соответствующий раздел, для этого напишите нам в специальной теме и встаньте на раздачу.
Новые релизы, повторяющие релизы в архиве, повторами не считаются.
Начать новую темуОтветить на тему  [ Сообщений: 3 ] 
Сообщения
 Добавлено: 2011-08-23 16:33
Книголюб
Аватара пользователя
Стаж: 7 лет 2 месяца
Сообщений: 2823
Спасибок: 48830
Лайков: 73
Шум
Noise
Изображение


Год выпуска: 2007
Страна: Австралия
Жанр: триллер, драма
Продолжительность: 01:48:01
Перевод: Любительский (одноголосый закадровый)

Режиссёр: Мэттью Савилл
В ролях: Майа Томас, Кэрол Браун, Грег Уильямс, Аарон Мерфи, Брендан Коуэлл, Аарон Маклафлин
Описание: Во время убийства в поезде метрополитена, один полицейский теряет сознание и после этого у него обнаруживается шум и звон в голове. Он не помнит, что случилось и пытается понять как это вылечить и что с ним произошло. В тоже время расследование этого трагического события начинает касаться его самого.
Мировая премьера: 12 февраля 2007
Изображение 9.222 9

Качество: BDRip 720p
Формат: MKV
Видео кодек: H.264
Аудио кодек: AC3 (Dolby Digital)
Видео: 1280x720 px, 24.00fps, ~4894 Kbps,0.233Bits/Pixel
Аудио #1: Русский 48000Hz 6ch, DD 5.1
Аудио #2: Английский 48000Hz 6ch, DD 5.1
MediaInfo
General
Unique ID : 237999906467331400890187537574245898490 (0xB30D1D5A888A7B289C106164CD9F18FA)
Complete name : J:\Noise.2007.BDRip.mkv
Format : Matroska
File size : 4.84 GiB
Duration : 1h 48mn
Overall bit rate : 6 410 Kbps
Encoded date : UTC 2011-08-21 17:34:59
Writing application : mkvmerge v4.9.1 ('Ich will') сборка от Jul 11 2011 23:53:15
Writing library : libebml v1.2.1 + libmatroska v1.1.1

Video
ID : 1
Format : AVC
Format/Info : Advanced Video Codec
Format profile : High@L4.1
Format settings, CABAC : Yes
Format settings, ReFrames : 5 frames
Muxing mode : Header stripping
Codec ID : V_MPEG4/ISO/AVC
Duration : 1h 48mn
Bit rate : 5 147 Kbps
Width : 1 280 pixels
Height : 720 pixels
Display aspect ratio : 16:9
Frame rate : 24.000 fps
Color space : YUV
Chroma subsampling : 4:2:0
Bit depth : 8 bits
Scan type : Progressive
Bits/(Pixel*Frame) : 0.233
Stream size : 3.77 GiB (78%)
Title : Noise (2007) [Encoded by PFa]
Writing library : x264 core 114 r1900 60ef1f8
Encoding settings : cabac=1 / ref=5 / deblock=1:0:0 / analyse=0x3:0x133 / me=umh / subme=8 / psy=1 / psy_rd=1.00:0.00 / mixed_ref=1 / me_range=16 / chroma_me=1 / trellis=1 / 8x8dct=1 / cqm=0 / deadzone=21,11 / fast_pskip=0 / chroma_qp_offset=-2 / threads=3 / sliced_threads=0 / nr=0 / decimate=1 / interlaced=0 / constrained_intra=0 / bframes=3 / b_pyramid=2 / b_adapt=1 / b_bias=0 / direct=1 / weightb=1 / open_gop=0 / weightp=2 / keyint=250 / keyint_min=23 / scenecut=40 / intra_refresh=0 / rc_lookahead=40 / rc=2pass / mbtree=1 / bitrate=5147 / ratetol=1.0 / qcomp=0.60 / qpmin=0 / qpmax=69 / qpstep=4 / cplxblur=20.0 / qblur=0.5 / ip_ratio=1.40 / aq=1:1.00
Language : English

Audio #1
ID : 2
Format : AC-3
Format/Info : Audio Coding 3
Mode extension : CM (complete main)
Muxing mode : Header stripping
Codec ID : A_AC3
Duration : 1h 48mn
Bit rate mode : Constant
Bit rate : 640 Kbps
Channel(s) : 6 channels
Channel positions : Front: L C R, Side: L R, LFE
Sampling rate : 48.0 KHz
Bit depth : 16 bits
Compression mode : Lossy
Stream size : 494 MiB (10%)
Title : Russian - AC3 DD 5.1, 48 kHz, 640 kbps
Language : Russian

Audio #2
ID : 3
Format : AC-3
Format/Info : Audio Coding 3
Mode extension : CM (complete main)
Muxing mode : Header stripping
Codec ID : A_AC3
Duration : 1h 48mn
Bit rate mode : Constant
Bit rate : 640 Kbps
Channel(s) : 6 channels
Channel positions : Front: L C R, Side: L R, LFE
Sampling rate : 48.0 KHz
Bit depth : 16 bits
Compression mode : Lossy
Stream size : 494 MiB (10%)
Title : English - AC3 DD 5.1, 48 kHz, 640 kbps
Language : English

Text
ID : 4
Format : UTF-8
Codec ID : S_TEXT/UTF8
Codec ID/Info : UTF-8 Plain Text
Title : Russian [by lingua.pura]


Свернуть



Скриншоты
Изображение
Изображение
Изображение
Свернуть
Не в сети
Профиль  
 Добавлено: 2011-08-23 19:33 (спустя 3 часа)
Аватара пользователя
Стаж: 7 лет 10 месяцев
Сообщений: 187
Лайков: 9
прибавьте скорости плиз!!!

Добавлено спустя 7 минут:
Да и почему в топе 250 лучших фильмов на сайте kinopoisk.ru первое место занимает "Побег из Шоушенка"
с рейтингом 9.163, когда у этого фильма 9.222???
Его даже в топе нет!!!
Не в сети
Профиль  
 Добавлено: 2011-08-27 15:18 (спустя 3 дня)
Аватара пользователя
Стаж: 6 лет 2 месяца
Сообщений: 24
офигенный фильмец.. рекомендую любителям неПопсы
Не в сети
Профиль  
Начать новую темуОтветить на тему  [ Сообщений: 3 ] 
Вы не можете начинать темы
Вы не можете отвечать на сообщения
Вы не можете редактировать свои сообщения
Вы не можете удалять свои сообщения
cron