Правила форума

Здесь находятся раздачи, на которых не было полного источника (сида) более месяца.
Вы можете вернуть релиз в соответствующий раздел, для этого напишите нам в специальной теме и встаньте на раздачу.
Новые релизы, повторяющие релизы в архиве, повторами не считаются.
Начать новую темуОтветить на тему  [ Сообщений: 3 ] 
Сообщения
 Добавлено: 2011-08-12 11:30
Аватара пользователя
Стаж: 6 лет 6 месяцев
Сообщений: 214
Спасибок: 10697
Синдбад и Минотавр
Sinbad and the Minotaur

Изображение

Год выпуска: 2011
Страна: Австралия

Жанр: фантастика, фэнтези, приключения
Перевод: Профессиональный (многоголосый, закадровый)
Продолжительность: 01:28:32
Режиссер: Карл Цвики
В ролях: Ману Беннетт, Холлы Брислей, Лилли Браун, Димитрий Бавеас, Стивен Грайвз, Брэд МакМюррей, Джаред Робинсон, Пачаро Мзембе, Терри Антоняк


Мировая премьера: 21 мая 2011
Релиз на DVD: 11 августа 2011, «Вольга»
Описание: Синдбад, наслышанный о древнем золоте, тайком пробирается в пустыню, в лагерь колдуна Аль-Жибара. Среди многих реликвий он находит сундук из слоновой кости, в котором спрятан журнал капитана пиратов Миноса. Он и должен привести Синдбада к золотой голове Колосса Родосского.


Релиз группы: Изображение Раздача: Изображение
Изображение
Формат: DVD Video
Качество: DVD9 R5
Видео: PAL 16:9 (720x576)
Аудио: Russian / English (Dolby AC3, 6 ch)
Субтитры: нет
Размер: 5.79 GB
Дополнительно: нет
NFO
Title:
Size: 5.79 Gb ( 6 066 048 KBytes ) - DVD-9
Enabled regions: 1, 2, 3, 4, 5, 6, 7, 8

VTS_01 :
Play Length: 00:00:10
Video: PAL 16:9 (720x576) VBR, Auto Pan&Scan, Auto Letterboxed

VTS_02 :
Play Length: 00:00:06
Video: PAL 16:9 (720x576) VBR, Auto Pan&Scan, Auto Letterboxed

VTS_03 :
Play Length: 01:28:32
Video: PAL 16:9 (720x576) VBR, Auto Pan&Scan, Auto Letterboxed
Audio:
Not specified (Dolby AC3, 6 ch)
Not specified (Dolby AC3, 6 ch)
Свернуть
MediaInfo
General
Complete name : D:\Temp\FullDisc\SINDBAD\VIDEO_TS\VTS_03_2.VOB
Format : MPEG-PS
File size : 1 024 MiB
Duration : 15mn 9s
Overall bit rate : 9 448 Kbps

Video
ID : 224 (0xE0)
Format : MPEG Video
Format version : Version 2
Format profile : Main@Main
Format settings, BVOP : Yes
Format settings, Matrix : Custom
Format settings, GOP : M=3, N=15
Duration : 15mn 8s
Bit rate mode : Variable
Bit rate : 9 000 Kbps
Width : 720 pixels
Height : 576 pixels
Display aspect ratio : 16:9
Frame rate : 25.000 fps
Standard : PAL
Color space : YUV
Chroma subsampling : 4:2:0
Bit depth : 8 bits
Scan type : Interlaced
Scan order : Top Field First
Compression mode : Lossy
Bits/(Pixel*Frame) : 0.868
Stream size : 948 MiB (93%)

Audio #1
ID : 189 (0xBD)-128 (0x80)
Format : AC-3
Format/Info : Audio Coding 3
Mode extension : CM (complete main)
Muxing mode : DVD-Video
Duration : 15mn 9s
Bit rate mode : Constant
Bit rate : 256 Kbps
Channel(s) : 6 channels
Channel positions : Front: L C R, Side: L R, LFE
Sampling rate : 48.0 KHz
Bit depth : 16 bits
Compression mode : Lossy
Delay relative to video : -352ms
Stream size : 27.7 MiB (3%)

Audio #2
ID : 189 (0xBD)-129 (0x81)
Format : AC-3
Format/Info : Audio Coding 3
Mode extension : CM (complete main)
Muxing mode : DVD-Video
Duration : 15mn 9s
Bit rate mode : Constant
Bit rate : 256 Kbps
Channel(s) : 6 channels
Channel positions : Front: L C R, Side: L R, LFE
Sampling rate : 48.0 KHz
Bit depth : 16 bits
Compression mode : Lossy
Delay relative to video : -352ms
Stream size : 27.7 MiB (3%)
Свернуть

"Скриншоты"

Изображение
Изображение
Изображение
Изображение
Изображение
Свернуть
Не в сети
Профиль  
 Добавлено: 2011-08-15 19:54 (спустя 3 дня)
Аватара пользователя
Стаж: 7 лет 3 месяца
Возраст: 34
Сообщений: 127
Ну так короче детская сказка
Не в сети
Профиль  
 Добавлено: 2011-08-21 20:54 (спустя 6 дней)
Стаж: 7 лет 3 месяца
Сообщений: 25
короче сериал геракакал луче чем это г.
Не в сети
Профиль  
Начать новую темуОтветить на тему  [ Сообщений: 3 ] 
Вы не можете начинать темы
Вы не можете отвечать на сообщения
Вы не можете редактировать свои сообщения
Вы не можете удалять свои сообщения