Правила форума

Здесь находятся раздачи, на которых не было полного источника (сида) более месяца.
Вы можете вернуть релиз в соответствующий раздел, для этого напишите нам в специальной теме и встаньте на раздачу.
Новые релизы, повторяющие релизы в архиве, повторами не считаются.
Начать новую темуОтветить на тему  [ Сообщений: 2 ] 
Сообщения
 Добавлено: 2011-08-07 15:02
Книголюб
Аватара пользователя
Стаж: 7 лет 2 месяца
Сообщений: 2823
Спасибок: 48829
Лайков: 73
Синдбад и Минотавр
Sinbad and the Minotaur

Изображение


Год выпуска: 2011
Страна: Австралия
Жанр: фантастика, фэнтези, приключения
Продолжительность: 01:25:40
Перевод: Профессиональный (многоголосый закадровый)

Режиссёр: Карл Цвики
В ролях: Ману Беннетт, Димитрий Бавеас, Джаред Робинсон, Пачаро Мзембе, Терри Антоняк, Брэд МакМюррей, Стивен Грайвз, Холлы Брислей, Лилли Браун
Описание: Синдбад, наслышанный о древнем золоте, тайком пробирается в пустыню, в лагерь колдуна Аль-Жибара. Среди многих реликвий он находит сундук из слоновой кости, в котором спрятан журнал капитана пиратов Миноса. Он и должен привести Синдбада к золотой голове Колосса Родосского.
Мировая премьера: 21 мая 2011,
Изображение 3.286 59

Качество: BDRip 720p
Формат: MKV
Видео кодек: AVC
Аудио кодек: AC3 (Dolby Digital)
Видео: 5537 Кбит/с, 1280x720, 23.976 кадр/с ,0.251Bits/Pixe
Аудио #1: Русский (AC3, 2 ch, 192 Кбит/c, 48 KHz)
Аудио #2: Английский (DTS, 6 ch, 1536 Кбит/c, 48 KHz)
MediaInfo
General
Unique ID : 203695386837893777705570829627540611638 (0x993E4DF4012AE7EF842BB5EDEBD7A236)
Complete name : I:\Sindbad.i.Minotavr.mkv
Format : Matroska
File size : 4.47 GiB
Duration : 1h 28mn
Overall bit rate : 7 232 Kbps
Movie name : encounters-siundemi_1080p 2
Encoded date : UTC 2011-08-04 12:48:48
Writing application : mkvmerge v4.9.1 ('Ich will') сборка от Jul 11 2011 23:53:15
Writing library : libebml v1.2.1 + libmatroska v1.1.1

Video
ID : 1
Format : AVC
Format/Info : Advanced Video Codec
Format profile : High@L4.1
Format settings, CABAC : Yes
Format settings, ReFrames : 8 frames
Codec ID : V_MPEG4/ISO/AVC
Duration : 1h 28mn
Bit rate mode : Variable
Bit rate : 5 537 Kbps
Maximum bit rate : 25.0 Mbps
Width : 1 280 pixels
Height : 720 pixels
Display aspect ratio : 16:9
Frame rate : 23.976 fps
Color space : YUV
Chroma subsampling : 4:2:0
Bit depth : 8 bits
Scan type : Progressive
Bits/(Pixel*Frame) : 0.251
Stream size : 3.33 GiB (74%)
Writing library : x264 core 114 r1924 08d04a4
Encoding settings : cabac=1 / ref=8 / deblock=1:0:0 / analyse=0x3:0x133 / me=umh / subme=7 / psy=1 / psy_rd=1.00:0.00 / mixed_ref=1 / me_range=16 / chroma_me=1 / trellis=1 / 8x8dct=1 / cqm=0 / deadzone=21,11 / fast_pskip=1 / chroma_qp_offset=-2 / threads=6 / sliced_threads=0 / nr=0 / decimate=1 / interlaced=0 / constrained_intra=0 / bframes=3 / b_pyramid=0 / b_adapt=1 / b_bias=0 / direct=1 / weightb=1 / open_gop=0 / weightp=2 / keyint=240 / keyint_min=24 / scenecut=40 / intra_refresh=0 / rc_lookahead=40 / rc=2pass / mbtree=1 / bitrate=5537 / ratetol=1.0 / qcomp=0.60 / qpmin=0 / qpmax=69 / qpstep=4 / cplxblur=20.0 / qblur=0.5 / vbv_maxrate=25000 / vbv_bufsize=25000 / nal_hrd=vbr / ip_ratio=1.40 / aq=1:1.00

Audio #1
ID : 2
Format : AC-3
Format/Info : Audio Coding 3
Mode extension : CM (complete main)
Codec ID : A_AC3
Duration : 1h 28mn
Bit rate mode : Constant
Bit rate : 192 Kbps
Channel(s) : 2 channels
Channel positions : Front: L R
Sampling rate : 44.1 KHz
Bit depth : 16 bits
Compression mode : Lossy
Stream size : 122 MiB (3%)
Title : Профессиональный многоголосый (R5)
Language : Russian

Audio #2
ID : 3
Format : DTS
Format/Info : Digital Theater Systems
Codec ID : A_DTS
Duration : 1h 28mn
Bit rate mode : Constant
Bit rate : 1 510 Kbps
Channel(s) : 6 channels
Channel positions : Front: L C R, Side: L R, LFE
Sampling rate : 48.0 KHz
Bit depth : 16 bits
Compression mode : Lossy
Stream size : 956 MiB (21%)
Language : English
Свернуть



Скриншоты
Изображение
Изображение
Изображение
Изображение
Свернуть
Не в сети
Профиль  
 Добавлено: 2011-08-07 17:10 (спустя 2 часа 8 минут)
Аватара пользователя
Стаж: 8 лет 3 месяца
Возраст: 43
Сообщений: 3290
Спасибок: 21012
Лайков: 3

coldun:

Русский (AC3, 2 ch, 192 Кбит/c, 48 KHz)
будет временным, хотя... пусть проверено :hi_hi_hi:
_________________
Изображение
Не в сети
Профиль  
Начать новую темуОтветить на тему  [ Сообщений: 2 ] 
Вы не можете начинать темы
Вы не можете отвечать на сообщения
Вы не можете редактировать свои сообщения
Вы не можете удалять свои сообщения