Правила форума

Здесь находятся раздачи, на которых не было полного источника (сида) более месяца.
Вы можете вернуть релиз в соответствующий раздел, для этого напишите нам в специальной теме и встаньте на раздачу.
Новые релизы, повторяющие релизы в архиве, повторами не считаются.
Начать новую темуОтветить на тему  [ Сообщений: 4 ] 
Сообщения
 Добавлено: 2011-08-13 21:47
Книголюб
Аватара пользователя
Стаж: 7 лет 2 месяца
Сообщений: 2823
Спасибок: 48827
Лайков: 73
Синдбад и Минотавр
Sinbad and the Minotaur
Изображение


Год выпуска: 2011
Страна: Австралия
Жанр: фантастика, фэнтези, приключения
Продолжительность: 01:25:40
Перевод: Профессиональный (многоголосый закадровый)

Режиссёр: Карл Цвики
В ролях: Ману Беннетт, Димитрий Бавеас, Джаред Робинсон, Пачаро Мзембе, Терри Антоняк, Брэд МакМюррей, Стивен Грайвз, Холлы Брислей, Лилли Браун
Описание: Синдбад, наслышанный о древнем золоте, тайком пробирается в пустыню, в лагерь колдуна Аль-Жибара. Среди многих реликвий он находит сундук из слоновой кости, в котором спрятан журнал капитана пиратов Миноса. Он и должен привести Синдбада к золотой голове Колосса Родосского.
Мировая премьера: 21 мая 2011
Изображение 3.500 81

Качество: BDRip 720p
Формат: MKV
Видео кодек: AVC
Аудио кодек: AC3 (Dolby Digital)
Видео: 5427 Kb/s, 1280x720, 23.976 fps, 0.246Bits/Pixel
Audio #1: Russian: AC3, 256 kb/s (6 ch)
Audio #2: English: AC3, 128 kb/s (2 ch)
MediaInfo
General
Unique ID : 220428930530739688590710562676806529565 (0xA5D5115ACE5A0A12A470C6540F2C321D)
Complete name : I:\Sinbad and the Minotaur.mkv
Format : Matroska
File size : 3.66 GiB
Duration : 1h 28mn
Overall bit rate : 5 929 Kbps
Movie name : Синдбад и Минотавр / Sinbad and the Minotaur (2011) BDRip-AVC от FireBit - firebit.org
Encoded date : UTC 2011-08-12 15:37:30
Writing application : mkvmerge v2.3.0 ('Freak U') built on Sep 8 2008 18:32:16
Writing library : libebml v0.7.7 + libmatroska v0.8.1

Video
ID : 1
Format : AVC
Format/Info : Advanced Video Codec
Format profile : High@L4.1
Format settings, CABAC : Yes
Format settings, ReFrames : 8 frames
Codec ID : V_MPEG4/ISO/AVC
Duration : 1h 28mn
Bit rate mode : Variable
Bit rate : 5 427 Kbps
Maximum bit rate : 25.0 Mbps
Width : 1 280 pixels
Height : 720 pixels
Display aspect ratio : 16:9
Frame rate : 23.976 fps
Color space : YUV
Chroma subsampling : 4:2:0
Bit depth : 8 bits
Scan type : Progressive
Bits/(Pixel*Frame) : 0.246
Stream size : 3.35 GiB (92%)
Title : http://firebit.org
Language : English

Audio #1
ID : 2
Format : AC-3
Format/Info : Audio Coding 3
Mode extension : CM (complete main)
Codec ID : A_AC3
Duration : 1h 28mn
Bit rate mode : Constant
Bit rate : 256 Kbps
Channel(s) : 6 channels
Channel positions : Front: L C R, Side: L R, LFE
Sampling rate : 48.0 KHz
Bit depth : 16 bits
Compression mode : Lossy
Delay relative to video : 6ms
Stream size : 162 MiB (4%)
Title : http://firebit.org
Language : Russian

Audio #2
ID : 3
Format : AC-3
Format/Info : Audio Coding 3
Mode extension : CM (complete main)
Codec ID : A_AC3
Duration : 1h 28mn
Bit rate mode : Constant
Bit rate : 128 Kbps
Channel(s) : 2 channels
Channel positions : Front: L R
Sampling rate : 48.0 KHz
Bit depth : 16 bits
Compression mode : Lossy
Delay relative to video : 6ms
Stream size : 80.9 MiB (2%)
Title : http://firebit.org
Language : English

Text #1
ID : 4
Format : UTF-8
Codec ID : S_TEXT/UTF8
Codec ID/Info : UTF-8 Plain Text
Title : http://firebit.org
Language : English

Text #2
ID : 5
Format : UTF-8
Codec ID : S_TEXT/UTF8
Codec ID/Info : UTF-8 Plain Text
Title : http://firebit.org
Language : English

Свернуть

Скриншоты
Изображение
Изображение
Изображение
Изображение
Свернуть
Не в сети
Профиль  
 Добавлено: 2011-08-13 22:40 (спустя 53 минуты)
Аватара пользователя
Стаж: 8 лет 3 месяца
Возраст: 43
Сообщений: 3290
Спасибок: 21012
Лайков: 3

coldun:

BDRip-AVC 720p
так не правильно :) Нужно HQRip AVC, но у вас просто BDRip 720p :)
_________________
Изображение
Не в сети
Профиль  
 Добавлено: 2011-08-14 08:04 (спустя 9 часов)
Аватара пользователя
Стаж: 9 лет
Сообщений: 545
Спасибок: 339
Будет 1080p?
_________________
Smack - Вместе нам не быть (Mixtape vol. 3) [2013]
Smack - Нарисую (Mixtape vol. 2) [2011]
Не в сети
Профиль  
 Добавлено: 2012-01-25 20:16 (спустя 5 месяцев 11 дней)
Стаж: 8 лет 7 месяцев
Сообщений: 20
Крикс))
Не в сети
Профиль  
Начать новую темуОтветить на тему  [ Сообщений: 4 ] 
Вы не можете начинать темы
Вы не можете отвечать на сообщения
Вы не можете редактировать свои сообщения
Вы не можете удалять свои сообщения