Правила форума

Здесь находятся раздачи, на которых не было полного источника (сида) более месяца.
Вы можете вернуть релиз в соответствующий раздел, для этого напишите нам в специальной теме и встаньте на раздачу.
Новые релизы, повторяющие релизы в архиве, повторами не считаются.
Начать новую темуОтветить на тему  [ Сообщений: 3 ] 
Сообщения
 Добавлено: 2011-07-22 09:15
Аватара пользователя
Стаж: 6 лет 6 месяцев
Сообщений: 214
Спасибок: 10697
Скелеты Железного острова
Hierro

Изображение

Год выпуска: 2009
Страна: Испания
Режиссер: Габе Ибаньес
В ролях: Елена Анайя, Беа Сегура, Мар Содуп, Андрес Херрера, Мириам Корреа, Хавьер Мейя, Рэкуэл Сальвадор, Хорхе Лобо
Жанр: триллер, драма, детектив
Продолжительность: 01:25:16
Перевод: Профессиональный (многоголосый, закадровый)


Бюджет: €2 300 000
Сборы в России: $8 816

Мировая премьера: 18 мая 2009
Релиз на DVD: 21 июля 2011, «Новый Диск»
Описание: Мать с сыном отправляются отдыхать на остров Йерро, но неожиданное исчезновение мальчика ставит героиню перед непростым выбором: смириться с утратой или во что бы то ни стало разобраться в случившемся и найти ребенка. Героине придется пройти по тонкой грани между реальностью и миром ужасающих видений, ведущих к безумию. Тонкое хитросплетение судеб, распутав которое можно получить ответы на все вопросы. Все это в испанском психологическом триллере режиссера Габе Ибаньеса.
Изображение 5.341 (303)

Релиз группы: Изображение Раздача: Изображение
Изображение
Качество: DVD9 R5
Формат: DVD Video
Видео: PAL 16:9 (720x576)
Аудио: Russian / Espanol (Dolby AC3, 6 ch)
MediaInfo
Общее
Полное имя : G: ...Skeleti.zheleznogo.ostrova.2009.DVD9VIDEO_TSVTS_12_5.VOB
Формат : MPEG-PS
Размер файла : 130 Мбайт
Продолжительность : 3 м. 42 с.
Общий поток : 4877 Кбит/сек

Видео
Идентификатор : 224 (0xE0)
Формат : MPEG Video
Версия формата : Version 2
Профиль формата : Main@Main
Параметр BVOP формата : Да
Параметр матрицы формата : По умолчанию
Параметры GOP формата : M=3, N=12
Продолжительность : 3 м. 42 с.
Вид битрейта : Переменный
Битрейт : 3884 Кбит/сек
Номинальный битрейт : 7500 Кбит/сек
Ширина : 720 пикс.
Высота : 576 пикс.
Соотношение сторон : 16:9
Частота кадров : 25,000 кадр/сек
Стандарт вещания : PAL
Цветовое пространство : YUV
Подвыборка цветности : 4:2:0
Битовая глубина : 8 бит
Тип развёртки : Прогрессивная
Метод сжатия : С потерями
Бит/(Пиксели*Кадры) : 0.375
Размер потока : 103 Мбайт (79%)

Аудио #1
Идентификатор : 189 (0xBD)-128 (0x80)
Формат : AC-3
Формат/Информация : Audio Coding 3
Расширение режима : CM (complete main)
Режим смешивания : DVD-Video
Продолжительность : 3 м. 42 с.
Вид битрейта : Постоянный
Битрейт : 448 Кбит/сек
Каналы : 6 каналов
Расположение каналов : Front: L C R, Side: L R, LFE
Частота : 48,0 КГц
Битовая глубина : 16 бит
Метод сжатия : С потерями
Задержка видео : -704 мс.
Размер потока : 11,9 Мбайт (9%)

Аудио #2
Идентификатор : 189 (0xBD)-129 (0x81)
Формат : AC-3
Формат/Информация : Audio Coding 3
Расширение режима : CM (complete main)
Режим смешивания : DVD-Video
Продолжительность : 3 м. 42 с.
Вид битрейта : Постоянный
Битрейт : 448 Кбит/сек
Каналы : 6 каналов
Расположение каналов : Front: L C R, Side: L R, LFE
Частота : 48,0 КГц
Битовая глубина : 16 бит
Метод сжатия : С потерями
Задержка видео : -704 мс.
Размер потока : 11,9 Мбайт (9%)
Свернуть
NFO
Title:
Size: 4.84 Gb ( 5 074 530 KBytes ) - DVD-9
Enabled regions: 1, 2, 3, 4, 5, 6, 7, 8

VTS_01 :
Play Length: 00:00:15
Video: PAL 4:3 (720x576) VBR
Audio:
Not specified (Dolby AC3, 2 ch)

VTS_02 :
Play Length: 00:00:08
Video: PAL 16:9 (720x576) VBR, Auto Pan&Scan
Audio:
Not specified (Dolby AC3, 2 ch)

VTS_03 :
Play Length: 00:00:12
Video: PAL 16:9 (720x576) VBR, Auto Pan&Scan
Audio:
Not specified (Dolby AC3, 2 ch)

VTS_04 :
Play Length: 00:02:20
Video: PAL 4:3 (720x576) VBR
Audio:
Not specified (Dolby AC3, 2 ch)

VTS_05 :
Play Length: 00:01:47
Video: PAL 16:9 (720x576) VBR, Auto Pan&Scan
Audio:
Not specified (Dolby AC3, 2 ch)

VTS_06 :
Play Length: 00:01:12
Video: PAL 16:9 (720x576) VBR, Auto Pan&Scan
Audio:
Not specified (LinearPCM, 2 ch)

VTS_07 :
Play Length: 00:02:06
Video: PAL 4:3 (720x576) VBR
Audio:
Not specified (Dolby AC3, 2 ch)

VTS_08 :
Play Length: 00:01:30
Video: PAL 16:9 (720x576) VBR, Auto Pan&Scan
Audio:
Not specified (Dolby AC3, 2 ch)

VTS_09 :
Play Length: 00:02:34
Video: PAL 16:9 (720x576) VBR, Auto Pan&Scan
Audio:
Not specified (Dolby AC3, 2 ch)

VTS_10 :
Play Length: 00:02:03
Video: PAL 16:9 (720x576) VBR, Auto Pan&Scan
Audio:
Not specified (Dolby AC3, 2 ch)

VTS_11 :
Play Length: 00:01:46
Video: PAL 16:9 (720x576) VBR, Auto Pan&Scan
Audio:
Not specified (Dolby AC3, 2 ch)

VTS_12 :
Play Length: 01:25:16
Video: PAL 16:9 (720x576) VBR, Auto Pan&Scan
Audio:
Russian (Dolby AC3, 6 ch)
Espanol (Dolby AC3, 6 ch)

Menu Video:
PAL 16:9 (720x576) VBR
Auto Letterboxed
Menu English Language Unit :
Root Menu
Chapter (PTT) Menu
Свернуть
"Скриншоты"

Изображение
Изображение
Изображение
Изображение
Изображение
Изображение
Изображение
Свернуть
Не в сети
Профиль  
 Добавлено: 2011-07-30 12:50 (спустя 8 дней)
Аватара пользователя
Стаж: 8 лет 10 месяцев
Возраст: 27
Сообщений: 21
как фильмец?
Не в сети
Профиль  
 Добавлено: 2011-08-08 20:34 (спустя 9 дней)
Стаж: 7 лет 8 месяцев
Сообщений: 37
Чё-то маленькие сборы в России
Не в сети
Профиль  
Начать новую темуОтветить на тему  [ Сообщений: 3 ] 
Вы не можете начинать темы
Вы не можете отвечать на сообщения
Вы не можете редактировать свои сообщения
Вы не можете удалять свои сообщения