Правила форума

Здесь находятся раздачи, на которых не было полного источника (сида) более месяца.
Вы можете вернуть релиз в соответствующий раздел, для этого напишите нам в специальной теме и встаньте на раздачу.
Новые релизы, повторяющие релизы в архиве, повторами не считаются.
Начать новую темуОтветить на тему  [ Сообщений: 2 ] 
Сообщения
 Добавлено: 2012-01-04 11:51
Top-releaser
Аватара пользователя
Стаж: 8 лет 7 месяцев
Сообщений: 1286
Спасибок: 3420
Лайков: 7
Сколько у тебя? / What's Your Number?


«У Элли было двадцать...»

Изображение
Год выпуска: 2011
Страна: США
Жанр: мелодрама, комедия
Продолжительность: 01:46:14
Перевод: Субтитры, Профессиональный (полное дублирование)

Режиссер: Марк Майлод
Сценарий: Гэбриэлль Аллан, Дженнифер Криттенден, Керин Боснак
Продюсер: Бо Флинн, Трип Винсон, Кэти Басби, Гитти Данешвари, Анна Фэрис
Оператор: Джеймс Муро
Композитор: Аарон Зигман

В ролях: Анна Фэрис (Ally Darling), Крис Эванс (Colin Shea), Эри Грейнор (Daisy Darling), Блайт Даннер (Ava Darling), Эд Бегли мл. (Mr. Darling), Оливер Джексон-Коэн (Eddie Vogel), Хезер Бёрнс (Eileen), Элиза Куп (Sheila), Кейт Симсес (Katie), Тика Самптер (Jamie), Джоэль МакХэйл (Roger the Boss), Жаклин Дусетте (Sheila's Mom)
Дублёры: Татьяна Шитова (Ally Darling), Александр Гаврилин (Colin Shea), Никита Прозоровский (Mr. Darling; Simon), Даниил Эльдаров (Eddie Vogel; Boyfriend Rick), Пётр Иващенко (Jake Adams)

Описание: Элли Дарлинг отправляется на поиски лучшего бывшего бойфренда в своей жизни, и это путешествие представляется ей абсолютно необходимым, после того, как она прочитала в журнале статью, предупреждающую о том, что люди, у которых в жизни было более 20 романов, упустили шанс найти свою настоящую любовь.
Элли - настоящая современная героиня. Она умная, привлекательная, забавная и романтичная - девушка, которая пытается понять, кто она на самом деле и с кем ей следует связать свою жизнь. Хотя к поиску бывшего лучшего кавалера ее подстегнула статья в журнале, это означает нечто более важное: у Элли наступил в жизни такой момент, когда она оказалась без мужа, без работы, и ее жизнь совсем не такая, о которой она мечтала. Она оказалась на перепутье, и это заставляет ее задуматься о том, что за последнее десятилетие она могла пропустить что-то, или кого-то, очень значимого в своей жизни.


Релиз: Изображение Раздача: Изображение

Изображение
Изображение

Бюджет: $20 000 000
Сборы в США: $14 011 084
Сборы в России: $2 065 547
Сборы в мире: $30 426 096
Мировая премьера: 29 сентября 2011
Релиз на DVD: 27 октября 2011, «Двадцатый Век Фокс СНГ»
Релиз на Blu-ray: 16 февраля 2012, «Двадцатый Век Фокс СНГ»


Качество: BDRip
Формат: Matroska
Видео: AVC; 1280x688 (1.860); 8534 kbps; 23,976 fps; 0,404 bit/pixel
Аудио №1: Russian; DTS; 754 kbps; CBR; 6 channels; 24 bit
Аудио №2: Ukrainian; AC3; 384 kbps; CBR; 6 channels; 16 bit
Аудио №3: English; DTS; 1509 kbps; CBR; 6 channels; 24 bit

Субтитры №1: Russian
Субтитры №2: English

Изображение
MediaInfo
Общее
Уникальный идентификатор : 241581547377004803754155639782460246929 (0xB5BEE9E260531C1787C3E70BFADE4B91)
Полное имя : E:\Видео\What's Your Number.BDRip.720p.[R.G.KINOvNINO].mkv
Формат : Matroska
Версия формата : Version 2
Размер файла : 8,30 Гбайт
Продолжительность : 1 ч. 46 м.
Общий поток : 11,2 Мбит/сек
Название фильма : What's Your Number?.BDRip.720p.Uniongang.tv
Дата кодирования : UTC 2012-01-03 12:56:06
Программа кодирования : mkvmerge v5.1.0 ('And so it goes') built on Nov 28 2011 23:58:28
Библиотека кодирования : libebml v1.2.3 + libmatroska v1.3.0

Видео
Идентификатор : 1
Формат : AVC
Формат/Информация : Advanced Video Codec
Профиль формата : High@L4.1
Параметр CABAC формата : Да
Параметр ReFrames формата : 8 кадров
Идентификатор кодека : V_MPEG4/ISO/AVC
Продолжительность : 1 ч. 46 м.
Битрейт : 8534 Кбит/сек
Ширина : 1280 пикселей
Высота : 688 пикселей
Соотношение сторон : 1,860
Частота кадров : 23,976 кадра/сек
Цветовое пространство : YUV
Субдискретизация насыщенности : 4:2:0
Битовая глубина : 8 бит
Тип развёртки : Прогрессивная
Бит/(Пиксели*Кадры) : 0.404
Размер потока : 6,17 Гбайт (74%)
Заголовок : What's Your Number.BDRip.720p.Uniongang.tv
Библиотека кодирования : x264 core 119 r2106 07efeb4
Настройки программы : cabac=1 / ref=8 / deblock=1:-3:-3 / analyse=0x3:0x133 / me=umh / subme=9 / psy=1 / psy_rd=1.00:0.10 / mixed_ref=1 / me_range=32 / chroma_me=1 / trellis=1 / 8x8dct=1 / cqm=0 / deadzone=21,11 / fast_pskip=0 / chroma_qp_offset=-3 / threads=6 / sliced_threads=0 / nr=0 / decimate=1 / interlaced=0 / bluray_compat=0 / constrained_intra=0 / bframes=11 / b_pyramid=2 / b_adapt=2 / b_bias=0 / direct=3 / weightb=1 / open_gop=0 / weightp=2 / keyint=250 / keyint_min=23 / scenecut=40 / intra_refresh=0 / rc_lookahead=40 / rc=2pass / mbtree=1 / bitrate=8534 / ratetol=1.0 / qcomp=0.60 / qpmin=10 / qpmax=51 / qpstep=4 / cplxblur=20.0 / qblur=0.5 / ip_ratio=1.40 / aq=1:1.00
Язык : English
Default : Да
Forced : Нет

Аудио #1
Идентификатор : 2
Формат : DTS
Формат/Информация : Digital Theater Systems
Идентификатор кодека : A_DTS
Продолжительность : 1 ч. 46 м.
Вид битрейта : Постоянный
Битрейт : 755 Кбит/сек
Каналы : 6 каналов
Расположение каналов : Front: L C R, Side: L R, LFE
Частота : 48,0 КГц
Битовая глубина : 24 бит
Метод сжатия : С потерями
Размер потока : 573 Мбайт (7%)
Язык : Russian
Default : Да
Forced : Нет

Аудио #2
Идентификатор : 3
Формат : AC-3
Формат/Информация : Audio Coding 3
Расширение режима : CM (complete main)
Идентификатор кодека : A_AC3
Продолжительность : 1 ч. 46 м.
Вид битрейта : Постоянный
Битрейт : 384 Кбит/сек
Каналы : 6 каналов
Расположение каналов : Front: L C R, Side: L R, LFE
Частота : 48,0 КГц
Битовая глубина : 16 бит
Метод сжатия : С потерями
Размер потока : 292 Мбайт (3%)
Язык : Ukrainian
Default : Нет
Forced : Нет

Аудио #3
Идентификатор : 4
Формат : DTS
Формат/Информация : Digital Theater Systems
Идентификатор кодека : A_DTS
Продолжительность : 1 ч. 46 м.
Вид битрейта : Постоянный
Битрейт : 1510 Кбит/сек
Каналы : 6 каналов
Расположение каналов : Front: L C R, Side: L R, LFE
Частота : 48,0 КГц
Битовая глубина : 24 бит
Метод сжатия : С потерями
Размер потока : 1,12 Гбайт (13%)
Язык : English
Default : Нет
Forced : Нет

Текст #1
Идентификатор : 5
Формат : UTF-8
Идентификатор кодека : S_TEXT/UTF8
Идентификатор кодека/Информация : UTF-8 Plain Text
Язык : Russian
Default : Нет
Forced : Нет

Текст #2
Идентификатор : 6
Формат : UTF-8
Идентификатор кодека : S_TEXT/UTF8
Идентификатор кодека/Информация : UTF-8 Plain Text
Язык : English
Default : Нет
Forced : Нет

Меню
00:00:00.000 : en:00:00:00.000
00:04:32.647 : en:00:04:32.647
00:08:19.540 : en:00:08:19.540
00:13:04.992 : en:00:13:04.992
00:18:06.293 : en:00:18:06.293
00:22:42.778 : en:00:22:42.778
00:26:03.228 : en:00:26:03.228
00:31:30.346 : en:00:31:30.346
00:35:05.353 : en:00:35:05.353
00:38:03.072 : en:00:38:03.072
00:43:03.122 : en:00:43:03.122
00:45:44.366 : en:00:45:44.366
00:47:49.533 : en:00:47:49.533
00:49:48.193 : en:00:49:48.193
00:51:55.737 : en:00:51:55.737
00:57:10.593 : en:00:57:10.593
01:00:17.113 : en:01:00:17.113
01:05:03.774 : en:01:05:03.774
01:08:19.803 : en:01:08:19.803
01:10:20.299 : en:01:10:20.299
01:13:16.016 : en:01:13:16.016
01:16:28.458 : en:01:16:28.458
01:19:21.631 : en:01:19:21.631
01:21:36.057 : en:01:21:36.057
01:28:05.029 : en:01:28:05.029
01:34:00.926 : en:01:34:00.926
01:38:25.733 : en:01:38:25.733
01:42:00.697 : en:01:42:00.697

Свернуть

Скриншоты

Изображение

Изображение

Изображение

Изображение

Свернуть
Не в сети
Профиль  
 Добавлено: 2013-06-30 21:52 (спустя 1 год 5 месяцев)
Аватара пользователя
Стаж: 5 лет 6 месяцев
Возраст: 23
Сообщений: 484
Спасибок: 1403
Лайков: 1
на раздачю встань ни кто не может что ли?


Тема поднималась пользователем Shamman 2013-06-30 21:52.
Не в сети
Профиль  
Начать новую темуОтветить на тему  [ Сообщений: 2 ] 
Вы не можете начинать темы
Вы не можете отвечать на сообщения
Вы не можете редактировать свои сообщения
Вы не можете удалять свои сообщения