Правила форума

Здесь находятся раздачи, на которых не было полного источника (сида) более месяца.
Вы можете вернуть релиз в соответствующий раздел, для этого напишите нам в специальной теме и встаньте на раздачу.
Новые релизы, повторяющие релизы в архиве, повторами не считаются.
Начать новую темуОтветить на тему  [ Сообщений: 4 ] 
Сообщения
 Добавлено: 2012-12-22 22:04
Стаж: 3 года 11 месяцев
Сообщений: 15
Спасибок: 141
Слова / The Words

Изображение


Год выпуска: 2012
Страна: США
Жанр: драма, мелодрама
Продолжительность: 01:42:41
Перевод: Любительский (одноголосый закадровый) + Оригинальная звуковая дорожка
Субтитры: Русские, Английские

Режиссёр: Брайан Клагман / Brian Klugman, Ли Стернтал / Lee Sternthal
В ролях: Брэдли Купер, Джереми Айронс, Оливия Уайлд, Зои Салдана, Деннис Куэйд, Брайан Клагман, Джон Ханна, Вито Филлипо, Майкл Мак Кин, Люсинда Дэвис
Описание: Писатель (Купер), находящийся на пике литературного успеха, узнаёт цену, которую он должен заплатить за кражу работы другого человека. Знаменитый автор романов Клэй Хаммонд (Куэйд) зачитывает две первые главы из своего нового бестселлера. Герой произведения — писатель-неудачник Рори находит в старом портфеле рукопись. В ней повествуется история любви американского солдата и французской официантки в военном и послевоенном Париже. Он издаёт роман под собственым именем и добивается всемерной славы...Но однажды рядом с ним на скамейке присаживается дряхлый старик (Айронс). Тайная ложь выходит на свет. Перед главным героем встаёт сложная моральная дилемма.


Качество: BDRip 1080p
Формат: MKV
Видео кодек: H264
Аудио кодек: AC3 (Dolby Digital)
Видео: NTSC 16:9, 1920x1036 (1,85:1), 14336 kbps, 23,976 fps, 0.301 bit/pixel, High@L4.1
Аудио #1: AC3, 48 kHz, 5.1, 448 kbps, 16 bit [Одноголосый закадровый]
Аудио #2: DTS, 48 kHz, 5.1, 1510 kbps, 16 bit [Оригинальная звуковая дорожка]
Субтитры: Русские, Английские

MediaInfo
Общее
Уникальный идентификатор : 185750247382080419249421083928074772540 (0x8BBE3244B7B9B4D98B30B93771A9E03C)
Формат : Matroska
Версия формата : Version 4 / Version 2
Размер файла : 11,7 Гбайт
Продолжительность : 1 ч. 42 м.
Общий поток : 16,3 Мбит/сек
Дата кодирования : UTC 2010-02-22 21:41:31
Программа кодирования : mkvmerge v5.9.0 ('On The Loose') built on Dec 9 2012 15:37:01
Библиотека кодирования : libebml v1.3.0 + libmatroska v1.4.0

Видео
Идентификатор : 1
Формат : AVC
Формат/Информация : Advanced Video Codec
Профиль формата : High@L4.1
Параметр CABAC формата : Да
Параметр ReFrames формата : 4 кадра
Идентификатор кодека : V_MPEG4/ISO/AVC
Продолжительность : 1 ч. 42 м.
Битрейт : 14,3 Мбит/сек
Ширина : 1920 пикселей
Высота : 1036 пикселей
Соотношение сторон : 1,85:1
Режим частоты кадров : Постоянный
Частота кадров : 23,976 кадра/сек
Цветовое пространство : YUV
Субдискретизация насыщенности : 4:2:0
Битовая глубина : 8 бит
Тип развёртки : Прогрессивная
Бит/(Пиксели*Кадры) : 0.301
Размер потока : 10,0 Гбайт (86%)
Библиотека кодирования : x264 core 129 r2230 1cffe9f
Настройки программы : cabac=1 / ref=4 / deblock=1:-2:-2 / analyse=0x3:0x113 / me=umh / subme=11 / psy=1 / psy_rd=1.02:0.12 / mixed_ref=1 / me_range=48 / chroma_me=1 / trellis=2 / 8x8dct=1 / cqm=0 / deadzone=21,11 / fast_pskip=0 / chroma_qp_offset=-3 / threads=36 / lookahead_threads=6 / sliced_threads=0 / slices=4 / nr=0 / decimate=1 / interlaced=0 / bluray_compat=0 / constrained_intra=0 / bframes=8 / b_pyramid=2 / b_adapt=2 / b_bias=0 / direct=3 / weightb=1 / open_gop=0 / weightp=2 / keyint=240 / keyint_min=23 / scenecut=40 / intra_refresh=0 / rc_lookahead=240 / rc=2pass / mbtree=1 / bitrate=14336 / ratetol=1.0 / qcomp=0.60 / qpmin=0 / qpmax=69 / qpstep=4 / cplxblur=20.0 / qblur=0.5 / vbv_maxrate=50000 / vbv_bufsize=40000 / nal_hrd=none / ip_ratio=1.40 / aq=1:1.00
Язык : English
Default : Да
Forced : Нет
Основные цвета : BT.709
Характеристики трансфера : BT.709
Коэффициенты матрицы : BT.709

Аудио #1
Идентификатор : 2
Формат : AC-3
Формат/Информация : Audio Coding 3
Расширение режима : CM (complete main)
Параметр Endianness формата : Big
Идентификатор кодека : A_AC3
Продолжительность : 1 ч. 42 м.
Вид битрейта : Постоянный
Битрейт : 448 Кбит/сек
Каналы : 6 каналов
Расположение каналов : Front: L C R, Side: L R, LFE
Частота : 48,0 КГц
Битовая глубина : 16 бит
Метод сжатия : С потерями
Размер потока : 329 Мбайт (3%)
Заголовок : edos1965
Язык : Russian
Default : Да
Forced : Нет

Аудио #2
Идентификатор : 3
Формат : DTS
Формат/Информация : Digital Theater Systems
Идентификатор кодека : A_DTS
Продолжительность : 1 ч. 42 м.
Вид битрейта : Постоянный
Битрейт : 1510 Кбит/сек
Каналы : 6 каналов
Расположение каналов : Front: L C R, Side: L R, LFE
Частота : 48,0 КГц
Битовая глубина : 16 бит
Метод сжатия : С потерями
Размер потока : 1,08 Гбайт (9%)
Заголовок : Original
Язык : English
Default : Нет
Forced : Нет

Текст #1
Идентификатор : 4
Формат : UTF-8
Идентификатор кодека : S_TEXT/UTF8
Идентификатор кодека/Информация : UTF-8 Plain Text
Заголовок : RUS
Язык : Russian
Default : Нет
Forced : Нет

Текст #2
Идентификатор : 5
Формат : UTF-8
Идентификатор кодека : S_TEXT/UTF8
Идентификатор кодека/Информация : UTF-8 Plain Text
Заголовок : Original
Язык : English
Default : Нет
Forced : Нет

Меню
00:00:00.000 : en:CHAPTER01
00:03:57.988 : en:CHAPTER02
00:08:39.144 : en:CHAPTER03
00:14:33.456 : en:CHAPTER04
00:19:25.623 : en:CHAPTER05
00:25:23.981 : en:CHAPTER06
00:31:36.228 : en:CHAPTER07
00:34:43.164 : en:CHAPTER08
00:41:16.724 : en:CHAPTER09
00:45:40.780 : en:CHAPTER10
00:50:32.696 : en:CHAPTER11
00:56:45.569 : en:CHAPTER12
01:04:45.256 : en:CHAPTER13
01:11:44.050 : en:CHAPTER14
01:19:55.916 : en:CHAPTER15
01:28:32.557 : en:CHAPTER16
Свернуть
Скриншоты
Изображение
Изображение
Изображение
Свернуть
Не в сети
Профиль  
 Добавлено: 2012-12-23 07:43 (спустя 9 часов)
Руководитель релиз-группы
Аватара пользователя
Стаж: 7 лет 4 месяца
Возраст: 31
Сообщений: 3407
Спасибок: 46729
Лайков: 5
 Полного источника не было никогда
Почему не раздаем ?
Не в сети
Профиль  
 Добавлено: 2012-12-23 10:57 (спустя 3 часа)
Стаж: 3 года 11 месяцев
Сообщений: 15
Спасибок: 141

askboy:

 Полного источника не было никогда
Почему не раздаем ?
Ночью выключаюсь)
Не в сети
Профиль  
 Добавлено: 2013-01-24 15:41 (спустя 1 месяц 1 день)
Руководитель релиз-группы
Аватара пользователя
Стаж: 7 лет 4 месяца
Возраст: 31
Сообщений: 3407
Спасибок: 46729
Лайков: 5
viewtopic.php?f=1750&t=497048
Не в сети
Профиль  
Начать новую темуОтветить на тему  [ Сообщений: 4 ] 
Вы не можете начинать темы
Вы не можете отвечать на сообщения
Вы не можете редактировать свои сообщения
Вы не можете удалять свои сообщения